  0
SECTION
  2
HEADER
  9
$ACADVER
  1
AC1018
  9
$ACADMAINTVER
 70
     0
  9
$DWGCODEPAGE
  3
ANSI_1252
  9
$INSBASE
 10
0.0
 20
0.0
 30
0.0
  9
$EXTMIN
 10
380.2500000019691
 20
-289.1499996184801
 30
0.0
  9
$EXTMAX
 10
800.2500000019675
 20
7.85000038151991
 30
0.0
  9
$LIMMIN
 10
0.0
 20
0.0
  9
$LIMMAX
 10
12.0
 20
9.0
  9
$ORTHOMODE
 70
     0
  9
$REGENMODE
 70
     1
  9
$FILLMODE
 70
     1
  9
$QTEXTMODE
 70
     0
  9
$MIRRTEXT
 70
     1
  9
$LTSCALE
 40
1.0
  9
$ATTMODE
 70
     1
  9
$TEXTSIZE
 40
0.2
  9
$TRACEWID
 40
0.05
  9
$TEXTSTYLE
  7
Standard
  9
$CLAYER
  8
0
  9
$CELTYPE
  6
ByLayer
  9
$CECOLOR
 62
   256
  9
$CELTSCALE
 40
1.0
  9
$DISPSILH
 70
     0
  9
$DIMSCALE
 40
1.0
  9
$DIMASZ
 40
0.18
  9
$DIMEXO
 40
0.0625
  9
$DIMDLI
 40
0.38
  9
$DIMRND
 40
0.0
  9
$DIMDLE
 40
0.0
  9
$DIMEXE
 40
0.18
  9
$DIMTP
 40
0.0
  9
$DIMTM
 40
0.0
  9
$DIMTXT
 40
0.18
  9
$DIMCEN
 40
0.09
  9
$DIMTSZ
 40
0.0
  9
$DIMTOL
 70
     0
  9
$DIMLIM
 70
     0
  9
$DIMTIH
 70
     1
  9
$DIMTOH
 70
     1
  9
$DIMSE1
 70
     0
  9
$DIMSE2
 70
     0
  9
$DIMTAD
 70
     0
  9
$DIMZIN
 70
     0
  9
$DIMBLK
  1

  9
$DIMASO
 70
     1
  9
$DIMSHO
 70
     1
  9
$DIMPOST
  1

  9
$DIMAPOST
  1

  9
$DIMALT
 70
     0
  9
$DIMALTD
 70
     2
  9
$DIMALTF
 40
25.4
  9
$DIMLFAC
 40
1.0
  9
$DIMTOFL
 70
     0
  9
$DIMTVP
 40
0.0
  9
$DIMTIX
 70
     0
  9
$DIMSOXD
 70
     0
  9
$DIMSAH
 70
     0
  9
$DIMBLK1
  1

  9
$DIMBLK2
  1

  9
$DIMSTYLE
  2
Standard
  9
$DIMCLRD
 70
     0
  9
$DIMCLRE
 70
     0
  9
$DIMCLRT
 70
     0
  9
$DIMTFAC
 40
1.0
  9
$DIMGAP
 40
0.09
  9
$DIMJUST
 70
     0
  9
$DIMSD1
 70
     0
  9
$DIMSD2
 70
     0
  9
$DIMTOLJ
 70
     1
  9
$DIMTZIN
 70
     0
  9
$DIMALTZ
 70
     0
  9
$DIMALTTZ
 70
     0
  9
$DIMUPT
 70
     0
  9
$DIMDEC
 70
     4
  9
$DIMTDEC
 70
     4
  9
$DIMALTU
 70
     2
  9
$DIMALTTD
 70
     2
  9
$DIMTXSTY
  7
Standard
  9
$DIMAUNIT
 70
     0
  9
$DIMADEC
 70
     0
  9
$DIMALTRND
 40
0.0
  9
$DIMAZIN
 70
     0
  9
$DIMDSEP
 70
    46
  9
$DIMATFIT
 70
     3
  9
$DIMFRAC
 70
     0
  9
$DIMLDRBLK
  1

  9
$DIMLUNIT
 70
     2
  9
$DIMLWD
 70
    -2
  9
$DIMLWE
 70
    -2
  9
$DIMTMOVE
 70
     0
  9
$LUNITS
 70
     2
  9
$LUPREC
 70
     4
  9
$SKETCHINC
 40
0.1
  9
$FILLETRAD
 40
0.5
  9
$AUNITS
 70
     0
  9
$AUPREC
 70
     0
  9
$MENU
  1
.
  9
$ELEVATION
 40
0.0
  9
$PELEVATION
 40
0.0
  9
$THICKNESS
 40
0.0
  9
$LIMCHECK
 70
     0
  9
$CHAMFERA
 40
0.5
  9
$CHAMFERB
 40
0.5
  9
$CHAMFERC
 40
1.0
  9
$CHAMFERD
 40
0.0
  9
$SKPOLY
 70
     0
  9
$TDCREATE
 40
2458163.450347836
  9
$TDUCREATE
 40
2458163.408681169
  9
$TDUPDATE
 40
2458163.450348553
  9
$TDUUPDATE
 40
2458163.408681887
  9
$TDINDWG
 40
0.0000000116
  9
$TDUSRTIMER
 40
0.0000000116
  9
$USRTIMER
 70
     1
  9
$ANGBASE
 50
0.0
  9
$ANGDIR
 70
     0
  9
$PDMODE
 70
     0
  9
$PDSIZE
 40
0.0
  9
$PLINEWID
 40
0.0
  9
$SPLFRAME
 70
     0
  9
$SPLINETYPE
 70
     6
  9
$SPLINESEGS
 70
     8
  9
$HANDSEED
  5
38D
  9
$SURFTAB1
 70
     6
  9
$SURFTAB2
 70
     6
  9
$SURFTYPE
 70
     6
  9
$SURFU
 70
     6
  9
$SURFV
 70
     6
  9
$UCSBASE
  2

  9
$UCSNAME
  2

  9
$UCSORG
 10
0.0
 20
0.0
 30
0.0
  9
$UCSXDIR
 10
1.0
 20
0.0
 30
0.0
  9
$UCSYDIR
 10
0.0
 20
1.0
 30
0.0
  9
$UCSORTHOREF
  2

  9
$UCSORTHOVIEW
 70
     0
  9
$UCSORGTOP
 10
0.0
 20
0.0
 30
0.0
  9
$UCSORGBOTTOM
 10
0.0
 20
0.0
 30
0.0
  9
$UCSORGLEFT
 10
0.0
 20
0.0
 30
0.0
  9
$UCSORGRIGHT
 10
0.0
 20
0.0
 30
0.0
  9
$UCSORGFRONT
 10
0.0
 20
0.0
 30
0.0
  9
$UCSORGBACK
 10
0.0
 20
0.0
 30
0.0
  9
$PUCSBASE
  2

  9
$PUCSNAME
  2

  9
$PUCSORG
 10
0.0
 20
0.0
 30
0.0
  9
$PUCSXDIR
 10
1.0
 20
0.0
 30
0.0
  9
$PUCSYDIR
 10
0.0
 20
1.0
 30
0.0
  9
$PUCSORTHOREF
  2

  9
$PUCSORTHOVIEW
 70
     0
  9
$PUCSORGTOP
 10
0.0
 20
0.0
 30
0.0
  9
$PUCSORGBOTTOM
 10
0.0
 20
0.0
 30
0.0
  9
$PUCSORGLEFT
 10
0.0
 20
0.0
 30
0.0
  9
$PUCSORGRIGHT
 10
0.0
 20
0.0
 30
0.0
  9
$PUCSORGFRONT
 10
0.0
 20
0.0
 30
0.0
  9
$PUCSORGBACK
 10
0.0
 20
0.0
 30
0.0
  9
$USERI1
 70
     0
  9
$USERI2
 70
     0
  9
$USERI3
 70
     0
  9
$USERI4
 70
     0
  9
$USERI5
 70
     0
  9
$USERR1
 40
18.1
  9
$USERR2
 40
0.0
  9
$USERR3
 40
0.0
  9
$USERR4
 40
0.0
  9
$USERR5
 40
0.0
  9
$WORLDVIEW
 70
     1
  9
$SHADEDGE
 70
     3
  9
$SHADEDIF
 70
    70
  9
$TILEMODE
 70
     1
  9
$MAXACTVP
 70
    64
  9
$PINSBASE
 10
0.0
 20
0.0
 30
0.0
  9
$PLIMCHECK
 70
     0
  9
$PEXTMIN
 10
1.00000000000000E+20
 20
1.00000000000000E+20
 30
1.00000000000000E+20
  9
$PEXTMAX
 10
-1.00000000000000E+20
 20
-1.00000000000000E+20
 30
-1.00000000000000E+20
  9
$PLIMMIN
 10
0.0
 20
0.0
  9
$PLIMMAX
 10
12.0
 20
9.0
  9
$UNITMODE
 70
     0
  9
$VISRETAIN
 70
     1
  9
$PLINEGEN
 70
     0
  9
$PSLTSCALE
 70
     1
  9
$TREEDEPTH
 70
  3020
  9
$CMLSTYLE
  2
Standard
  9
$CMLJUST
 70
     0
  9
$CMLSCALE
 40
1.0
  9
$PROXYGRAPHICS
 70
     1
  9
$MEASUREMENT
 70
     1
  9
$CELWEIGHT
370
    -1
  9
$ENDCAPS
280
     0
  9
$JOINSTYLE
280
     0
  9
$LWDISPLAY
290
     0
  9
$INSUNITS
 70
     4
  9
$HYPERLINKBASE
  1

  9
$STYLESHEET
  1

  9
$XEDIT
290
     1
  9
$CEPSNTYPE
380
     0
  9
$PSTYLEMODE
290
     1
  9
$FINGERPRINTGUID
  2
{A70ED1EB-B81A-4185-8C84-0EDCE9195ADA}
  9
$VERSIONGUID
  2
{FAEB1C32-E019-11D5-929B-00C0DF256EC4}
  9
$EXTNAMES
290
     1
  9
$PSVPSCALE
 40
0.0
  9
$OLESTARTUP
290
     0
  9
$SORTENTS
280
   127
  9
$INDEXCTL
280
     0
  9
$HIDETEXT
280
     1
  9
$XCLIPFRAME
290
     0
  9
$HALOGAP
280
     0
  9
$OBSCOLOR
 70
   257
  9
$OBSLTYPE
280
     0
  9
$INTERSECTIONDISPLAY
280
     0
  9
$INTERSECTIONCOLOR
 70
   257
  9
$DIMASSOC
280
     2
  9
$PROJECTNAME
  1

  0
ENDSEC
  0
SECTION
  2
CLASSES
  0
CLASS
  1
ACDBDICTIONARYWDFLT
  2
AcDbDictionaryWithDefault
  3
ObjectDBX Classes
 90
        0
 91
        4
280
     0
281
     0
  0
CLASS
  1
VISUALSTYLE
  2
AcDbVisualStyle
  3
ObjectDBX Classes
 90
     4095
 91
        4
280
     0
281
     0
  0
CLASS
  1
MATERIAL
  2
AcDbMaterial
  3
ObjectDBX Classes
 90
     1153
 91
        4
280
     0
281
     0
  0
ENDSEC
  0
SECTION
  2
TABLES
  0
TABLE
  2
VPORT
  5
8
330
0
100
AcDbSymbolTable
 70
     1
  0
VPORT
  5
29
330
8
100
AcDbSymbolTableRecord
100
AcDbViewportTableRecord
  2
*Active
 70
     0
 10
0.0
 20
0.0
 11
1.0
 21
1.0
 12
590.2500000019683
 22
-140.6499996184801
 13
0.0
 23
0.0
 14
0.5
 24
0.5
 15
0.5
 25
0.5
 16
0.0
 26
0.0
 36
1.0
 17
0.0
 27
0.0
 37
0.0
 40
326.7
 41
1.60267857142857
 42
50.0
 43
0.0
 44
0.0
 50
0.0
 51
0.0
 71
     0
 72
   100
 73
     1
 74
     3
 75
     0
 76
     0
 77
     0
 78
     0
281
     0
 65
     1
110
0.0
120
0.0
130
0.0
111
1.0
121
0.0
131
0.0
112
0.0
122
1.0
132
0.0
 79
     0
146
0.0
  0
ENDTAB
  0
TABLE
  2
LTYPE
  5
5
330
0
100
AcDbSymbolTable
 70
     8
  0
LTYPE
  5
14
330
5
100
AcDbSymbolTableRecord
100
AcDbLinetypeTableRecord
  2
ByBlock
 70
     0
  3

 72
    65
 73
     0
 40
0.0
  0
LTYPE
  5
15
330
5
100
AcDbSymbolTableRecord
100
AcDbLinetypeTableRecord
  2
ByLayer
 70
     0
  3

 72
    65
 73
     0
 40
0.0
  0
LTYPE
  5
16
330
5
100
AcDbSymbolTableRecord
100
AcDbLinetypeTableRecord
  2
Continuous
 70
     0
  3
Solid line
 72
    65
 73
     0
 40
0.0
  0
LTYPE
  5
3F
330
5
100
AcDbSymbolTableRecord
100
AcDbLinetypeTableRecord
  2
DASHED
 70
     0
  3
Dashed
 72
    65
 73
     2
 40
15.0
 49
7.0
 74
     0
 49
-8.0
 74
     0
  0
LTYPE
  5
40
330
5
100
AcDbSymbolTableRecord
100
AcDbLinetypeTableRecord
  2
DOTTED
 70
     0
  3
Dotted
 72
    65
 73
     2
 40
1.0
 49
0.0
 74
     0
 49
-1.0
 74
     0
  0
LTYPE
  5
41
330
5
100
AcDbSymbolTableRecord
100
AcDbLinetypeTableRecord
  2
DOT_CENTER
 70
     0
  3
Dot_Center
 72
    65
 73
     4
 40
14.0
 49
12.0
 74
     0
 49
-1.0
 74
     0
 49
0.0
 74
     0
 49
-1.0
 74
     0
  0
LTYPE
  5
42
330
5
100
AcDbSymbolTableRecord
100
AcDbLinetypeTableRecord
  2
LONG_DASHED
 70
     0
  3
Long_Dashed
 72
    65
 73
     2
 40
15.0
 49
10.0
 74
     0
 49
-5.0
 74
     0
  0
LTYPE
  5
43
330
5
100
AcDbSymbolTableRecord
100
AcDbLinetypeTableRecord
  2
DASH_CENTER
 70
     0
  3
Dash_Center
 72
    65
 73
     4
 40
14.0
 49
11.0
 74
     0
 49
-1.0
 74
     0
 49
1.0
 74
     0
 49
-1.0
 74
     0
  0
LTYPE
  5
44
330
5
100
AcDbSymbolTableRecord
100
AcDbLinetypeTableRecord
  2
PHANTOM
 70
     0
  3
Phantom
 72
    65
 73
     6
 40
13.0
 49
10.0
 74
     0
 49
-1.0
 74
     0
 49
0.0
 74
     0
 49
-1.0
 74
     0
 49
0.0
 74
     0
 49
-1.0
 74
     0
  0
LTYPE
  5
45
330
5
100
AcDbSymbolTableRecord
100
AcDbLinetypeTableRecord
  2
CENTER_DASH_DASH
 70
     0
  3
Center_Dash_Dash
 72
    65
 73
     6
 40
14.0
 49
9.0
 74
     0
 49
-1.0
 74
     0
 49
1.0
 74
     0
 49
-1.0
 74
     0
 49
1.0
 74
     0
 49
-1.0
 74
     0
  0
ENDTAB
  0
TABLE
  2
LAYER
  5
2
330
0
100
AcDbSymbolTable
 70
     2
  0
LAYER
  5
10
330
2
100
AcDbSymbolTableRecord
100
AcDbLayerTableRecord
  2
0
 70
     0
 62
     7
  6
Continuous
370
    -3
390
F
  0
LAYER
  5
46
330
2
100
AcDbSymbolTableRecord
100
AcDbLayerTableRecord
  2
1
 70
     0
 62
     7
  6
Continuous
370
    -3
390
F
  0
ENDTAB
  0
TABLE
  2
STYLE
  5
3
330
0
100
AcDbSymbolTable
 70
     5
  0
STYLE
  5
11
330
3
100
AcDbSymbolTableRecord
100
AcDbTextStyleTableRecord
  2
Standard
 70
     0
 40
0.0
 41
1.0
 50
0.0
 71
     0
 42
0.2
  3
txt
  4

  0
STYLE
  5
D6
330
3
100
AcDbSymbolTableRecord
100
AcDbTextStyleTableRecord
  2
CONVERTER_11
 70
     0
 40
0.0
 41
0.9
 50
0.0
 71
     0
 42
0.2
  3
txt.shx
  4

  0
STYLE
  5
325
330
3
100
AcDbSymbolTableRecord
100
AcDbTextStyleTableRecord
  2
CONVERTER_12
 70
     0
 40
0.0
 41
0.81
 50
0.0
 71
     0
 42
0.2
  3
txt.shx
  4

  0
STYLE
  5
32D
330
3
100
AcDbSymbolTableRecord
100
AcDbTextStyleTableRecord
  2
CONVERTER_13
 70
     0
 40
0.0
 41
0.72
 50
0.0
 71
     0
 42
0.2
  3
txt.shx
  4

  0
STYLE
  5
330
330
3
100
AcDbSymbolTableRecord
100
AcDbTextStyleTableRecord
  2
CONVERTER_14
 70
     0
 40
0.0
 41
0.855
 50
0.0
 71
     0
 42
0.2
  3
txt.shx
  4

  0
ENDTAB
  0
TABLE
  2
VIEW
  5
6
330
0
100
AcDbSymbolTable
 70
     0
  0
ENDTAB
  0
TABLE
  2
UCS
  5
7
330
0
100
AcDbSymbolTable
 70
     0
  0
ENDTAB
  0
TABLE
  2
APPID
  5
9
330
0
100
AcDbSymbolTable
 70
     1
  0
APPID
  5
12
330
9
100
AcDbSymbolTableRecord
100
AcDbRegAppTableRecord
  2
ACAD
 70
     0
  0
ENDTAB
  0
TABLE
  2
DIMSTYLE
  5
A
330
0
100
AcDbSymbolTable
 70
     4
100
AcDbDimStyleTable
  0
DIMSTYLE
105
27
330
A
100
AcDbSymbolTableRecord
100
AcDbDimStyleTableRecord
  2
Standard
 70
     0
178
     0
340
11
  0
DIMSTYLE
105
DA
102
{ACAD_REACTORS
330
DB
102
}
330
A
100
AcDbSymbolTableRecord
100
AcDbDimStyleTableRecord
  2
ME10_DIM_10
 70
     0
 41
3.5
 42
0.0
 44
1.5
 73
     0
 74
     0
 77
     1
 78
     8
140
3.5
147
1.5
172
     1
173
     1
174
     1
175
     1
176
     2
177
     2
178
     3
340
D6
  0
DIMSTYLE
105
E5
102
{ACAD_REACTORS
330
E6
102
}
330
A
100
AcDbSymbolTableRecord
100
AcDbDimStyleTableRecord
  2
ME10_DIM_11
 70
     0
 41
3.5
 42
0.0
 44
1.5
 73
     0
 74
     0
 77
     1
 78
     8
140
3.5
147
1.5
172
     1
173
     1
174
     1
175
     1
176
     2
177
     2
178
     3
340
D6
  0
DIMSTYLE
105
17E
102
{ACAD_REACTORS
330
17F
102
}
330
A
100
AcDbSymbolTableRecord
100
AcDbDimStyleTableRecord
  2
ME10_DIM_12
 70
     0
 41
3.5
 42
0.0
 44
1.5
 73
     0
 74
     0
 77
     1
 78
     8
140
3.5
147
1.5
172
     1
173
     1
174
     1
175
     1
176
     2
177
     2
178
     3
340
D6
  0
ENDTAB
  0
TABLE
  2
BLOCK_RECORD
  5
1
330
0
100
AcDbSymbolTable
 70
    24
  0
BLOCK_RECORD
  5
1F
330
1
100
AcDbSymbolTableRecord
100
AcDbBlockTableRecord
  2
*Model_Space
340
22
  0
BLOCK_RECORD
  5
1B
330
1
100
AcDbSymbolTableRecord
100
AcDbBlockTableRecord
  2
*Paper_Space
340
1E
  0
BLOCK_RECORD
  5
23
330
1
100
AcDbSymbolTableRecord
100
AcDbBlockTableRecord
  2
*Paper_Space0
340
26
  0
BLOCK_RECORD
  5
47
330
1
100
AcDbSymbolTableRecord
100
AcDbBlockTableRecord
  2
EB_56_18-select__1
340
0
102
{BLKREFS
331
4B
102
}
  0
BLOCK_RECORD
  5
4A
330
1
100
AcDbSymbolTableRecord
100
AcDbBlockTableRecord
  2
Back1
340
0
102
{BLKREFS
331
8D
102
}
  0
BLOCK_RECORD
  5
4E
330
1
100
AcDbSymbolTableRecord
100
AcDbBlockTableRecord
  2
EB_56_18-select__2
340
0
102
{BLKREFS
331
52
102
}
  0
BLOCK_RECORD
  5
51
330
1
100
AcDbSymbolTableRecord
100
AcDbBlockTableRecord
  2
Front1
340
0
102
{BLKREFS
331
8E
102
}
  0
BLOCK_RECORD
  5
55
330
1
100
AcDbSymbolTableRecord
100
AcDbBlockTableRecord
  2
EB_56_18-select__3
340
0
102
{BLKREFS
331
59
102
}
  0
BLOCK_RECORD
  5
58
330
1
100
AcDbSymbolTableRecord
100
AcDbBlockTableRecord
  2
Left1
340
0
102
{BLKREFS
331
8F
102
}
  0
BLOCK_RECORD
  5
5C
330
1
100
AcDbSymbolTableRecord
100
AcDbBlockTableRecord
  2
EB_56_18-select__4
340
0
102
{BLKREFS
331
60
102
}
  0
BLOCK_RECORD
  5
5F
330
1
100
AcDbSymbolTableRecord
100
AcDbBlockTableRecord
  2
Right1
340
0
102
{BLKREFS
331
90
102
}
  0
BLOCK_RECORD
  5
63
330
1
100
AcDbSymbolTableRecord
100
AcDbBlockTableRecord
  2
EB_56_18-select__5
340
0
102
{BLKREFS
331
67
102
}
  0
BLOCK_RECORD
  5
66
330
1
100
AcDbSymbolTableRecord
100
AcDbBlockTableRecord
  2
Top1
340
0
102
{BLKREFS
331
91
102
}
  0
BLOCK_RECORD
  5
6A
330
1
100
AcDbSymbolTableRecord
100
AcDbBlockTableRecord
  2
3009299_eb56_18-select_1_1
340
0
102
{BLKREFS
331
71
102
}
  0
BLOCK_RECORD
  5
6D
330
1
100
AcDbSymbolTableRecord
100
AcDbBlockTableRecord
  2
3009299_eb56_18-select_1_2
340
0
102
{BLKREFS
331
72
102
}
  0
BLOCK_RECORD
  5
70
330
1
100
AcDbSymbolTableRecord
100
AcDbBlockTableRecord
  2
a1
340
0
102
{BLKREFS
331
76
102
}
  0
BLOCK_RECORD
  5
75
330
1
100
AcDbSymbolTableRecord
100
AcDbBlockTableRecord
  2
Gen1
340
0
102
{BLKREFS
331
7A
102
}
  0
BLOCK_RECORD
  5
79
330
1
100
AcDbSymbolTableRecord
100
AcDbBlockTableRecord
  2
1__6
340
0
102
{BLKREFS
331
7E
102
}
  0
BLOCK_RECORD
  5
7D
330
1
100
AcDbSymbolTableRecord
100
AcDbBlockTableRecord
  2
Paste1
340
0
102
{BLKREFS
331
92
102
}
  0
BLOCK_RECORD
  5
81
330
1
100
AcDbSymbolTableRecord
100
AcDbBlockTableRecord
  2
_rahmen
340
0
102
{BLKREFS
331
88
102
}
  0
BLOCK_RECORD
  5
84
330
1
100
AcDbSymbolTableRecord
100
AcDbBlockTableRecord
  2
_punkt
340
0
102
{BLKREFS
331
89
102
}
  0
BLOCK_RECORD
  5
87
330
1
100
AcDbSymbolTableRecord
100
AcDbBlockTableRecord
  2
A3I_CS
340
0
102
{BLKREFS
331
93
102
}
  0
BLOCK_RECORD
  5
8C
330
1
100
AcDbSymbolTableRecord
100
AcDbBlockTableRecord
  2
1__7
340
0
102
{BLKREFS
331
96
102
}
  0
BLOCK_RECORD
  5
D0
330
1
100
AcDbSymbolTableRecord
100
AcDbBlockTableRecord
  2
*D21
340
0
  0
BLOCK_RECORD
  5
DC
330
1
100
AcDbSymbolTableRecord
100
AcDbBlockTableRecord
  2
*D22
340
0
  0
BLOCK_RECORD
  5
175
330
1
100
AcDbSymbolTableRecord
100
AcDbBlockTableRecord
  2
*D23
340
0
  0
ENDTAB
  0
ENDSEC
  0
SECTION
  2
BLOCKS
  0
BLOCK
  5
20
330
1F
100
AcDbEntity
  8
0
100
AcDbBlockBegin
  2
*Model_Space
 70
     0
 10
0.0
 20
0.0
 30
0.0
  3
*Model_Space
  1

  0
ENDBLK
  5
21
330
1F
100
AcDbEntity
  8
0
100
AcDbBlockEnd
  0
BLOCK
  5
1C
330
1B
100
AcDbEntity
 67
     1
  8
0
100
AcDbBlockBegin
  2
*Paper_Space
 70
     0
 10
0.0
 20
0.0
 30
0.0
  3
*Paper_Space
  1

  0
ENDBLK
  5
1D
330
1B
100
AcDbEntity
 67
     1
  8
0
100
AcDbBlockEnd
  0
BLOCK
  5
24
330
23
100
AcDbEntity
  8
0
100
AcDbBlockBegin
  2
*Paper_Space0
 70
     0
 10
0.0
 20
0.0
 30
0.0
  3
*Paper_Space0
  1

  0
ENDBLK
  5
25
330
23
100
AcDbEntity
  8
0
100
AcDbBlockEnd
  0
BLOCK
  5
48
330
47
100
AcDbEntity
  8
0
100
AcDbBlockBegin
  2
EB_56_18-select__1
 70
     0
 10
720.2500000039357
 20
-68.49999923696022
 30
0.0
  3
EB_56_18-select__1
  1

  0
LINE
  5
97
330
47
100
AcDbEntity
  8
0
  6
Continuous
 62
     7
100
AcDbLine
 10
735.9500000039359
 20
-63.89999923696036
 30
0.0
 11
735.9483328740487
 21
-63.89999923696036
 31
0.0
  0
LINE
  5
98
330
47
100
AcDbEntity
  8
0
  6
Continuous
 62
     7
100
AcDbLine
 10
735.9500000039359
 20
-54.59999923696039
 30
0.0
 11
735.9500000039359
 21
-55.19999923696035
 31
0.0
  0
LINE
  5
99
330
47
100
AcDbEntity
  8
0
  6
Continuous
 62
     7
100
AcDbLine
 10
735.9500000039359
 20
-63.89999923696036
 30
0.0
 11
735.9500000039359
 21
-65.28574978106644
 31
0.0
  0
LINE
  5
9A
330
47
100
AcDbEntity
  8
0
  6
Continuous
 62
     7
100
AcDbLine
 10
735.9500000039359
 20
-55.19999923696035
 30
0.0
 11
735.9500000039359
 21
-63.89999923696036
 31
0.0
  0
LINE
  5
9B
330
47
100
AcDbEntity
  8
0
  6
Continuous
 62
     7
100
AcDbLine
 10
735.9483328740487
 20
-63.89999923696036
 30
0.0
 11
734.4500000039358
 21
-63.89999923696036
 31
0.0
  0
LINE
  5
9C
330
47
100
AcDbEntity
  8
0
  6
Continuous
 62
     7
100
AcDbLine
 10
734.4500000039358
 20
-63.89999923696036
 30
0.0
 11
734.4500000039357
 21
-63.79999923696036
 31
0.0
  0
LINE
  5
9D
330
47
100
AcDbEntity
  8
0
  6
Continuous
 62
     7
100
AcDbLine
 10
734.0078432273743
 20
-64.78217782268196
 30
0.0
 11
733.7467531384385
 21
-65.05922106245613
 31
0.0
  0
LINE
  5
9E
330
47
100
AcDbEntity
  8
0
  6
Continuous
 62
     7
100
AcDbLine
 10
733.1645535470478
 20
-64.51054662730833
 30
0.0
 11
733.6037755319188
 21
-64.04448725996671
 31
0.0
  0
LINE
  5
9F
330
47
100
AcDbEntity
  8
0
  6
Continuous
 62
     7
100
AcDbLine
 10
736.7500000039357
 20
-53.79999923696035
 30
0.0
 11
731.5013233981306
 21
-53.79999923696035
 31
0.0
  0
LINE
  5
A0
330
47
100
AcDbEntity
  8
0
  6
Continuous
 62
     7
100
AcDbLine
 10
735.9500000039359
 20
-54.59999923696039
 30
0.0
 11
732.4821791114435
 21
-54.59999923696039
 31
0.0
  0
LINE
  5
A1
330
47
100
AcDbEntity
  8
0
  6
Continuous
 62
     7
100
AcDbLine
 10
734.4500000039358
 20
-55.19999923696035
 30
0.0
 11
735.9500000039359
 21
-55.19999923696035
 31
0.0
  0
LINE
  5
A2
330
47
100
AcDbEntity
  8
0
  6
Continuous
 62
     7
100
AcDbLine
 10
734.4500000039357
 20
-63.79999923696036
 30
0.0
 11
734.4500000039358
 21
-55.19999923696035
 31
0.0
  0
LINE
  5
A3
330
47
100
AcDbEntity
  8
0
  6
Continuous
 62
     7
100
AcDbLine
 10
736.7500000039357
 20
-65.28574978106644
 30
0.0
 11
736.7500000039357
 21
-53.79999923696035
 31
0.0
  0
LINE
  5
A4
330
47
100
AcDbEntity
  8
0
  6
Continuous
 62
     7
100
AcDbLine
 10
734.335227469787
 20
-63.62923296267569
 30
0.0
 11
732.4821791114435
 21
-54.59999923696039
 31
0.0
  0
LINE
  5
A5
330
47
100
AcDbEntity
  8
0
  6
Continuous
 62
     7
100
AcDbLine
 10
732.9500000039357
 20
-66.79999923696036
 30
0.0
 11
720.2500000039357
 21
-66.79999923696036
 31
0.0
  0
LINE
  5
A6
330
47
100
AcDbEntity
  8
0
  6
Continuous
 62
     7
100
AcDbLine
 10
720.2500000039357
 20
-65.29999923696036
 30
0.0
 11
720.2500000039357
 21
-66.79999923696036
 31
0.0
  0
LINE
  5
A7
330
47
100
AcDbEntity
  8
0
  6
Continuous
 62
     7
100
AcDbLine
 10
732.9500000039357
 20
-65.29999923696036
 30
0.0
 11
720.2500000039357
 21
-65.29999923696036
 31
0.0
  0
LINE
  5
A8
330
47
100
AcDbEntity
  8
0
  6
Continuous
 62
     7
100
AcDbLine
 10
733.6037755319188
 20
-64.04448725996671
 30
0.0
 11
731.5013233981306
 21
-53.79999923696035
 31
0.0
  0
ARC
  5
A9
330
47
100
AcDbEntity
  8
0
  6
Continuous
 62
     7
100
AcDbCircle
 10
733.4556533427432
 20
-64.78488384488224
 30
0.0
 40
0.4000000000000561
100
AcDbArc
 50
284.5655080793736
 51
309.7876707867491
  0
ARC
  5
AA
330
47
100
AcDbEntity
  8
0
  6
Continuous
 62
     7
100
AcDbCircle
 10
732.9500000039357
 20
-63.79999923696036
 30
0.0
 40
1.5
100
AcDbArc
 50
270.0
 51
293.8388348918912
  0
ARC
  5
AB
330
47
100
AcDbEntity
  8
0
  6
Continuous
 62
     7
100
AcDbCircle
 10
733.4556533427432
 20
-64.78488384488224
 30
0.0
 40
0.4000000000000868
100
AcDbArc
 50
136.6980561059634
 51
284.5655080793736
  0
ARC
  5
AC
330
47
100
AcDbEntity
  8
0
  6
Continuous
 62
     7
100
AcDbCircle
 10
733.4556533427432
 20
-64.78488384488224
 30
0.0
 40
0.4000000000000408
100
AcDbArc
 50
309.7876707867491
 51
316.6980561059663
  0
ARC
  5
AD
330
47
100
AcDbEntity
  8
0
  6
Continuous
 62
     7
100
AcDbCircle
 10
732.9500000039357
 20
-63.79999923696036
 30
0.0
 40
1.500000000000035
100
AcDbArc
 50
300.5143439742398
 51
0.0
  0
ARC
  5
AE
330
47
100
AcDbEntity
  8
0
  6
Continuous
 62
     7
100
AcDbCircle
 10
732.9500000039357
 20
-63.79999923696036
 30
0.0
 40
3.0
100
AcDbArc
 50
270.0
 51
358.0897868282901
  0
ARC
  5
AF
330
47
100
AcDbEntity
  8
0
  6
Continuous
 62
     7
100
AcDbCircle
 10
732.4500000039359
 20
-65.28574978106644
 30
0.0
 40
3.500000000000017
100
AcDbArc
 50
313.813061460405
 51
0.0
  0
ARC
  5
B0
330
47
100
AcDbEntity
  8
0
  6
Continuous
 62
     7
100
AcDbCircle
 10
732.4500000039359
 20
-65.28574978106644
 30
0.0
 40
4.299999999999901
100
AcDbArc
 50
313.8130614604043
 51
0.0
  0
ARC
  5
B1
330
47
100
AcDbEntity
  8
0
  6
Continuous
 62
     7
100
AcDbCircle
 10
735.1500000039358
 20
-68.09999923696034
 30
0.0
 40
0.3999999999998225
100
AcDbArc
 50
133.8130614603949
 51
313.8130614604072
  0
ARC
  5
B2
330
47
100
AcDbEntity
  8
0
  6
Continuous
 62
     7
100
AcDbCircle
 10
733.0617688913646
 20
-63.89058186556692
 30
0.0
 40
1.300000000000029
100
AcDbArc
 50
316.6980561059642
 51
11.59764263864543
  0
ENDBLK
  5
49
330
47
100
AcDbEntity
  8
0
100
AcDbBlockEnd
  0
BLOCK
  5
4C
330
4A
100
AcDbEntity
  8
0
100
AcDbBlockBegin
  2
Back1
 70
     0
 10
728.5000000019704
 20
-61.14999961848025
 30
0.0
  3
Back1
  1

  0
INSERT
  5
4B
330
4A
100
AcDbEntity
  8
0
100
AcDbBlockReference
  2
EB_56_18-select__1
 10
720.2500000039357
 20
-68.49999923696022
 30
0.0
  0
ENDBLK
  5
4D
330
4A
100
AcDbEntity
  8
0
100
AcDbBlockEnd
  0
BLOCK
  5
4F
330
4E
100
AcDbEntity
  8
0
100
AcDbBlockBegin
  2
EB_56_18-select__2
 70
     0
 10
563.7499999960712
 20
-68.4999992369602
 30
0.0
  3
EB_56_18-select__2
  1

  0
LINE
  5
B3
330
4E
100
AcDbEntity
  8
0
  6
Continuous
 62
     7
100
AcDbLine
 10
564.5499999960712
 20
-54.59999923696023
 30
0.0
 11
568.0178208885634
 21
-54.59999923696023
 31
0.0
  0
LINE
  5
B4
330
4E
100
AcDbEntity
  8
0
  6
Continuous
 62
     7
100
AcDbLine
 10
566.0499999960713
 20
-55.19999923696025
 30
0.0
 11
564.5499999960712
 21
-55.19999923696025
 31
0.0
  0
LINE
  5
B5
330
4E
100
AcDbEntity
  8
0
  6
Continuous
 62
     7
100
AcDbLine
 10
563.7499999960712
 20
-53.79999923696028
 30
0.0
 11
563.7499999960712
 21
-65.28574978106633
 31
0.0
  0
LINE
  5
B6
330
4E
100
AcDbEntity
  8
0
  6
Continuous
 62
     7
100
AcDbLine
 10
568.9986766018765
 20
-53.79999923696028
 30
0.0
 11
563.7499999960712
 21
-53.79999923696028
 31
0.0
  0
LINE
  5
B7
330
4E
100
AcDbEntity
  8
0
  6
Continuous
 62
     7
100
AcDbLine
 10
568.0178208885634
 20
-54.59999923696023
 30
0.0
 11
566.1647725302199
 21
-63.62923296267559
 31
0.0
  0
LINE
  5
B8
330
4E
100
AcDbEntity
  8
0
  6
Continuous
 62
     7
100
AcDbLine
 10
567.3354464529591
 20
-64.51054662730826
 30
0.0
 11
566.8962244680881
 21
-64.04448725996656
 31
0.0
  0
LINE
  5
B9
330
4E
100
AcDbEntity
  8
0
  6
Continuous
 62
     7
100
AcDbLine
 10
566.0499999960712
 20
-63.79999923696028
 30
0.0
 11
566.0499999960713
 21
-63.8999992369603
 31
0.0
  0
LINE
  5
BA
330
4E
100
AcDbEntity
  8
0
  6
Continuous
 62
     7
100
AcDbLine
 10
566.4921567726326
 20
-64.78217782268189
 30
0.0
 11
566.7532468615685
 21
-65.059221062456
 31
0.0
  0
LINE
  5
BB
330
4E
100
AcDbEntity
  8
0
  6
Continuous
 62
     7
100
AcDbLine
 10
564.5499999960712
 20
-63.8999992369603
 30
0.0
 11
564.5516671259581
 21
-63.8999992369603
 31
0.0
  0
LINE
  5
BC
330
4E
100
AcDbEntity
  8
0
  6
Continuous
 62
     7
100
AcDbLine
 10
564.5516671259581
 20
-63.8999992369603
 30
0.0
 11
566.0499999960713
 21
-63.8999992369603
 31
0.0
  0
LINE
  5
BD
330
4E
100
AcDbEntity
  8
0
  6
Continuous
 62
     7
100
AcDbLine
 10
566.0499999960713
 20
-55.19999923696025
 30
0.0
 11
566.0499999960712
 21
-63.79999923696028
 31
0.0
  0
LINE
  5
BE
330
4E
100
AcDbEntity
  8
0
  6
Continuous
 62
     7
100
AcDbLine
 10
564.5499999960712
 20
-55.19999923696025
 30
0.0
 11
564.5499999960712
 21
-54.59999923696023
 31
0.0
  0
LINE
  5
BF
330
4E
100
AcDbEntity
  8
0
  6
Continuous
 62
     7
100
AcDbLine
 10
564.5499999960712
 20
-65.28574978106633
 30
0.0
 11
564.5499999960712
 21
-63.8999992369603
 31
0.0
  0
LINE
  5
C0
330
4E
100
AcDbEntity
  8
0
  6
Continuous
 62
     7
100
AcDbLine
 10
564.5499999960712
 20
-63.8999992369603
 30
0.0
 11
564.5499999960712
 21
-55.19999923696025
 31
0.0
  0
LINE
  5
C1
330
4E
100
AcDbEntity
  8
0
  6
Continuous
 62
     7
100
AcDbLine
 10
580.2499999960712
 20
-65.29999923696028
 30
0.0
 11
567.5499999960712
 21
-65.29999923696028
 31
0.0
  0
LINE
  5
C2
330
4E
100
AcDbEntity
  8
0
  6
Continuous
 62
     7
100
AcDbLine
 10
580.2499999960712
 20
-66.79999923696028
 30
0.0
 11
580.2499999960712
 21
-65.29999923696028
 31
0.0
  0
LINE
  5
C3
330
4E
100
AcDbEntity
  8
0
  6
Continuous
 62
     7
100
AcDbLine
 10
567.5499999960712
 20
-66.79999923696028
 30
0.0
 11
580.2499999960712
 21
-66.79999923696028
 31
0.0
  0
LINE
  5
C4
330
4E
100
AcDbEntity
  8
0
  6
Continuous
 62
     7
100
AcDbLine
 10
566.8962244680881
 20
-64.04448725996656
 30
0.0
 11
568.9986766018765
 21
-53.79999923696028
 31
0.0
  0
ARC
  5
C5
330
4E
100
AcDbEntity
  8
0
  6
Continuous
 62
     7
100
AcDbCircle
 10
565.3499999960711
 20
-68.09999923696023
 30
0.0
 40
0.4000000000000037
100
AcDbArc
 50
226.1869385396074
 51
46.18693853959616
  0
ARC
  5
C6
330
4E
100
AcDbEntity
  8
0
  6
Continuous
 62
     7
100
AcDbCircle
 10
568.0499999960712
 20
-65.28574978106633
 30
0.0
 40
4.299999999999955
100
AcDbArc
 50
180.0
 51
226.1869385395959
  0
ARC
  5
C7
330
4E
100
AcDbEntity
  8
0
  6
Continuous
 62
     7
100
AcDbCircle
 10
568.0499999960712
 20
-65.28574978106633
 30
0.0
 40
3.5
100
AcDbArc
 50
180.0
 51
226.1869385395946
  0
ARC
  5
C8
330
4E
100
AcDbEntity
  8
0
  6
Continuous
 62
     7
100
AcDbCircle
 10
567.4382311086423
 20
-63.89058186556679
 30
0.0
 40
1.299999999999992
100
AcDbArc
 50
168.4023573613561
 51
223.3019438940378
  0
ARC
  5
C9
330
4E
100
AcDbEntity
  8
0
  6
Continuous
 62
     7
100
AcDbCircle
 10
567.0443466572639
 20
-64.78488384488207
 30
0.0
 40
0.4000000000000966
100
AcDbArc
 50
223.3019438940381
 51
230.212329213245
  0
ARC
  5
CA
330
4E
100
AcDbEntity
  8
0
  6
Continuous
 62
     7
100
AcDbCircle
 10
567.0443466572639
 20
-64.78488384488207
 30
0.0
 40
0.4000000000001681
100
AcDbArc
 50
230.212329213245
 51
255.4344919206127
  0
ARC
  5
CB
330
4E
100
AcDbEntity
  8
0
  6
Continuous
 62
     7
100
AcDbCircle
 10
567.0443466572639
 20
-64.78488384488207
 30
0.0
 40
0.4000000000001397
100
AcDbArc
 50
255.4344919206127
 51
43.30194389403746
  0
ARC
  5
CC
330
4E
100
AcDbEntity
  8
0
  6
Continuous
 62
     7
100
AcDbCircle
 10
567.5499999960712
 20
-63.79999923696028
 30
0.0
 40
1.5
100
AcDbArc
 50
180.0
 51
239.4856560257636
  0
ARC
  5
CD
330
4E
100
AcDbEntity
  8
0
  6
Continuous
 62
     7
100
AcDbCircle
 10
567.5499999960712
 20
-63.79999923696028
 30
0.0
 40
1.499999999999959
100
AcDbArc
 50
246.1611651081122
 51
270.0
  0
ARC
  5
CE
330
4E
100
AcDbEntity
  8
0
  6
Continuous
 62
     7
100
AcDbCircle
 10
567.5499999960712
 20
-63.79999923696028
 30
0.0
 40
3.000000000000028
100
AcDbArc
 50
181.9102131717102
 51
270.0
  0
ENDBLK
  5
50
330
4E
100
AcDbEntity
  8
0
100
AcDbBlockEnd
  0
BLOCK
  5
53
330
51
100
AcDbEntity
  8
0
100
AcDbBlockBegin
  2
Front1
 70
     0
 10
571.9999999980364
 20
-61.14999961847991
 30
0.0
  3
Front1
  1

  0
INSERT
  5
52
330
51
100
AcDbEntity
  8
0
100
AcDbBlockReference
  2
EB_56_18-select__2
 10
563.7499999960712
 20
-68.4999992369602
 30
0.0
  0
LINE
  5
CF
330
51
100
AcDbEntity
  8
1
  6
Continuous
 62
     2
100
AcDbLine
 10
565.3499999960701
 20
-68.49999923696049
 30
0.0
 11
565.0730769191471
 21
-68.49999923696049
 31
0.0
  0
DIMENSION
  5
DB
330
51
100
AcDbEntity
  8
1
100
AcDbDimension
  2
*D21
 10
554.8499999960701
 20
-68.49999923696049
 30
0.0
 11
551.4249999960701
 21
-60.09287450901341
 31
0.0
 70
    32
  1
<>
 71
     5
 42
-1.0
 53
90.0
  3
ME10_DIM_10
100
AcDbAlignedDimension
 13
563.7499999960712
 23
-53.79999923696028
 33
0.0
 14
565.3499999960701
 24
-68.49999923696049
 34
0.0
 50
90.0
100
AcDbRotatedDimension
  0
DIMENSION
  5
E6
330
51
100
AcDbEntity
  8
1
100
AcDbDimension
  2
*D22
 10
563.7499999960712
 20
-77.43200390907415
 30
0.0
 11
571.8800642864571
 21
-74.00700390907416
 31
0.0
 70
    32
  1
<>
 71
     5
 42
-1.0
 53
0.00013888888889
  3
ME10_DIM_11
100
AcDbAlignedDimension
 13
580.2499999960712
 23
-66.79999923696028
 33
0.0
 14
563.7499999960712
 24
-53.79999923696028
 34
0.0
100
AcDbRotatedDimension
  0
ENDBLK
  5
54
330
51
100
AcDbEntity
  8
0
100
AcDbBlockEnd
  0
BLOCK
  5
56
330
55
100
AcDbEntity
  8
0
100
AcDbBlockBegin
  2
EB_56_18-select__3
 70
     0
 10
621.7499999999991
 20
-68.50172923695925
 30
0.0
  3
EB_56_18-select__3
  1

  0
LINE
  5
E7
330
55
100
AcDbEntity
  8
0
  6
Continuous
 62
     7
100
AcDbLine
 10
657.6122220667651
 20
-53.80172923695932
 30
0.0
 11
621.7499999999991
 21
-53.80172923695932
 31
0.0
  0
LINE
  5
E8
330
55
100
AcDbEntity
  8
0
  6
Continuous
 62
     7
100
AcDbLine
 10
695.7499999999991
 20
-53.8017292369592
 30
0.0
 11
659.6122220667651
 21
-53.8017292369592
 31
0.0
  0
LINE
  5
E9
330
55
100
AcDbEntity
  8
0
  6
Continuous
 62
     7
100
AcDbLine
 10
695.7499999999991
 20
-53.8017292369592
 30
0.0
 11
695.7499999999991
 21
-65.28747978106537
 31
0.0
  0
LINE
  5
EA
330
55
100
AcDbEntity
  8
0
  6
Continuous
 62
     7
100
AcDbLine
 10
621.7499999999991
 20
-65.28747978106549
 30
0.0
 11
621.7499999999991
 21
-68.39037020679461
 31
0.0
  0
LINE
  5
EB
330
55
100
AcDbEntity
  8
0
  6
Continuous
 62
     2
100
AcDbLine
 10
621.7499999999991
 20
-65.28747978106549
 30
0.0
 11
657.7683289453671
 21
-65.28747978106537
 31
0.0
  0
LINE
  5
EC
330
55
100
AcDbEntity
  8
0
  6
Continuous
 62
     2
100
AcDbLine
 10
659.7683289453671
 20
-65.28747978106537
 30
0.0
 11
695.7499999999991
 21
-65.28747978106537
 31
0.0
  0
LINE
  5
ED
330
55
100
AcDbEntity
  8
0
  6
Continuous
 62
     7
100
AcDbLine
 10
695.7499999999991
 20
-68.3903702067945
 30
0.0
 11
695.7499999999991
 21
-68.50172923695914
 31
0.0
  0
LINE
  5
EE
330
55
100
AcDbEntity
  8
0
  6
Continuous
 62
     7
100
AcDbLine
 10
660.0509720667651
 20
-68.50172923695914
 30
0.0
 11
695.7499999999991
 21
-68.50172923695914
 31
0.0
  0
LINE
  5
EF
330
55
100
AcDbEntity
  8
0
  6
Continuous
 62
     2
100
AcDbLine
 10
660.0673596674021
 20
-68.39037020678904
 30
0.0
 11
695.7499999999991
 21
-68.3903702067945
 31
0.0
  0
LINE
  5
F0
330
55
100
AcDbEntity
  8
0
  6
Continuous
 62
     7
100
AcDbLine
 10
621.7499999999991
 20
-68.39037020679461
 30
0.0
 11
621.7499999999991
 21
-68.50172923695925
 31
0.0
  0
LINE
  5
F1
330
55
100
AcDbEntity
  8
0
  6
Continuous
 62
     2
100
AcDbLine
 10
621.7499999999991
 20
-68.39037020679461
 30
0.0
 11
658.0673596674021
 21
-68.39037020678916
 31
0.0
  0
LINE
  5
F2
330
55
100
AcDbEntity
  8
0
  6
Continuous
 62
     7
100
AcDbLine
 10
621.7499999999991
 20
-68.50172923695925
 30
0.0
 11
658.0509720667651
 21
-68.50172923695925
 31
0.0
  0
LINE
  5
F3
330
55
100
AcDbEntity
  8
0
  6
Continuous
 62
     7
100
AcDbLine
 10
695.7499999999991
 20
-65.28747978106537
 30
0.0
 11
695.7499999999991
 21
-68.3903702067945
 31
0.0
  0
LINE
  5
F4
330
55
100
AcDbEntity
  8
0
  6
Continuous
 62
     7
100
AcDbLine
 10
621.7499999999991
 20
-65.28747978106549
 30
0.0
 11
621.7499999999991
 21
-53.80172923695932
 31
0.0
  0
SPLINE
  5
F5
330
55
100
AcDbEntity
  8
0
  6
Continuous
 62
     2
100
AcDbSpline
210
0.0
220
0.0
230
1.0
 70
     8
 71
     3
 72
     9
 73
     5
 74
     3
 42
0.000000001
 43
0.0000000001
 44
0.00000001
 40
0.0
 40
0.0
 40
0.0
 40
0.0
 40
0.403112876956244
 40
0.8042363040712337
 40
0.8042363040712337
 40
0.8042363040712337
 40
0.8042363040712337
 10
659.6322219141571
 20
-54.60172923695927
 30
0.0
 10
659.6088596849546
 20
-54.46856163608152
 30
0.0
 10
659.5622505440106
 20
-54.20288364396449
 30
0.0
 10
659.5955923786332
 20
-53.93522667027702
 30
0.0
 10
659.6122220667651
 20
-53.8017292369592
 30
0.0
 11
659.6322219141571
 21
-54.60172923695927
 31
0.0
 11
659.582221990461
 21
-54.2017292369592
 31
0.0
 11
659.6122220667651
 21
-53.8017292369592
 31
0.0
  0
SPLINE
  5
F6
330
55
100
AcDbEntity
  8
0
  6
Continuous
 62
     2
100
AcDbSpline
210
0.0
220
0.0
230
1.0
 70
     8
 71
     3
 72
    11
 73
     7
 74
     5
 42
0.000000001
 43
0.0000000001
 44
0.00000001
 40
0.0
 40
0.0
 40
0.0
 40
0.0
 40
0.0500748225870358
 40
0.1005933426246464
 40
0.1200603231458448
 40
0.1394602312071477
 40
0.1394602312071477
 40
0.1394602312071477
 40
0.1394602312071477
 10
657.8749260914531
 20
-65.06095106245516
 30
0.0
 10
657.8679413808796
 20
-65.07611173503527
 30
0.0
 10
657.8539100557297
 20
-65.10656740735399
 30
0.0
 10
657.8362224101902
 20
-65.14247024162427
 30
0.0
 10
657.8229293319866
 20
-65.16913563707503
 30
0.0
 10
657.8172792743355
 20
-65.18079448428023
 30
0.0
 10
657.8144591141111
 20
-65.18661384488132
 30
0.0
 11
657.8749260914531
 21
-65.06095106245516
 31
0.0
 11
657.8537765923656
 21
-65.10634034046713
 31
0.0
 11
657.8315969999994
 21
-65.1517296184791
 31
0.0
 11
657.8229520002271
 21
-65.1691717316802
 31
0.0
 11
657.8144591141111
 21
-65.18661384488132
 31
0.0
  0
SPLINE
  5
F7
330
55
100
AcDbEntity
  8
0
  6
Continuous
 62
     2
100
AcDbSpline
210
0.0
220
0.0
230
1.0
 70
     8
 71
     3
 72
     9
 73
     5
 74
     3
 42
0.000000001
 43
0.0000000001
 44
0.00000001
 40
0.0
 40
0.0
 40
0.0
 40
0.0
 40
0.1502422285209898
 40
0.2970362085471411
 40
0.2970362085471411
 40
0.2970362085471411
 40
0.2970362085471411
 10
659.8749260914531
 20
-65.06095106245505
 30
0.0
 10
659.8950307953763
 20
-65.01505149773796
 30
0.0
 10
659.934778756385
 20
-64.92430581370716
 30
0.0
 10
659.9661708533688
 20
-64.83034355741161
 30
0.0
 10
659.981684679532
 20
-64.78390782268082
 30
0.0
 11
659.8749260914531
 21
-65.06095106245505
 31
0.0
 11
659.9331024452867
 21
-64.92242944256793
 31
0.0
 11
659.981684679532
 21
-64.78390782268082
 31
0.0
  0
SPLINE
  5
F8
330
55
100
AcDbEntity
  8
0
  6
Continuous
 62
     2
100
AcDbSpline
210
0.0
220
0.0
230
1.0
 70
     8
 71
     3
 72
     9
 73
     5
 74
     3
 42
0.000000001
 43
0.0000000001
 44
0.00000001
 40
0.0
 40
0.0
 40
0.0
 40
0.0
 40
0.5849346235980991
 40
1.165290235679222
 40
1.165290235679222
 40
1.165290235679222
 40
1.165290235679222
 10
659.981684679532
 20
-64.78390782268082
 30
0.0
 10
660.0286755296339
 20
-64.59213086698101
 30
0.0
 10
660.1222893544044
 20
-64.21007823063391
 30
0.0
 10
660.0498666112217
 20
-63.82349502507344
 30
0.0
 10
660.01379752255
 20
-63.63096296267452
 30
0.0
 11
659.981684679532
 21
-64.78390782268082
 31
0.0
 11
660.0808212166796
 21
-64.20743539267767
 31
0.0
 11
660.01379752255
 21
-63.63096296267452
 31
0.0
  0
SPLINE
  5
F9
330
55
100
AcDbEntity
  8
0
  6
Continuous
 62
     2
100
AcDbSpline
210
0.0
220
0.0
230
1.0
 70
     8
 71
     3
 72
    11
 73
     7
 74
     5
 42
0.000000001
 43
0.0000000001
 44
0.00000001
 40
0.0
 40
0.0
 40
0.0
 40
0.0
 40
0.0415798873701214
 40
0.0832230909829009
 40
0.0978969574403102
 40
0.1125708238924214
 40
0.1125708238924214
 40
0.1125708238924214
 40
0.1125708238924214
 10
658.0673596674021
 20
-68.39037020678916
 30
0.0
 10
658.0656374578532
 20
-68.40412322949388
 30
0.0
 10
658.0621904000693
 20
-68.43165021531581
 30
0.0
 10
658.0572939049669
 20
-68.46391677693433
 30
0.0
 10
658.053472689807
 20
-68.4872699153104
 30
0.0
 10
658.0518056125551
 20
-68.49690946389454
 30
0.0
 10
658.0509720667651
 20
-68.50172923695925
 30
0.0
 11
658.0673596674021
 21
-68.39037020678916
 31
0.0
 11
658.0620144303125
 21
-68.43160508855
 31
0.0
 11
658.055827674613
 21
-68.47278615796154
 31
0.0
 11
658.0534508540275
 21
-68.48726625063111
 31
0.0
 11
658.0509720667651
 21
-68.50172923695925
 31
0.0
  0
SPLINE
  5
FA
330
55
100
AcDbEntity
  8
0
  6
Continuous
 62
     2
100
AcDbSpline
210
0.0
220
0.0
230
1.0
 70
     8
 71
     3
 72
    11
 73
     7
 74
     5
 42
0.000000001
 43
0.0000000001
 44
0.00000001
 40
0.0
 40
0.0
 40
0.0
 40
0.0
 40
0.0146738664522653
 40
0.0293477329097728
 40
0.0710509229665372
 40
0.1125708239087517
 40
0.1125708239087517
 40
0.1125708239087517
 40
0.1125708239087517
 10
660.0509720667651
 20
-68.50172923695914
 30
0.0
 10
660.0518056123664
 20
-68.49690946385792
 30
0.0
 10
660.053472689241
 20
-68.48726991520076
 30
0.0
 10
660.0572971378456
 20
-68.46389704460061
 30
0.0
 10
660.0621931839459
 20
-68.43163040647636
 30
0.0
 10
660.065640042067
 20
-68.404103399066
 30
0.0
 10
660.0673596674021
 20
-68.39037020678904
 30
0.0
 11
660.0509720667651
 21
-68.50172923695914
 31
0.0
 11
660.0534508540275
 21
-68.48726625063104
 31
0.0
 11
660.055827674613
 21
-68.47278615796142
 31
0.0
 11
660.0620227432332
 21
-68.43154567781647
 31
0.0
 11
660.0673596674021
 21
-68.39037020678904
 31
0.0
  0
SPLINE
  5
FB
330
55
100
AcDbEntity
  8
0
  6
Continuous
 62
     2
100
AcDbSpline
210
0.0
220
0.0
230
1.0
 70
     8
 71
     3
 72
     9
 73
     5
 74
     3
 42
0.000000001
 43
0.0000000001
 44
0.00000001
 40
0.0
 40
0.0
 40
0.0
 40
0.0
 40
0.0551955964594888
 40
0.1109200932962169
 40
0.1109200932962169
 40
0.1109200932962169
 40
0.1109200932962169
 10
659.7683289453671
 20
-65.28747978106537
 30
0.0
 10
659.7757185333872
 20
-65.27062909221806
 30
0.0
 10
659.7905685368553
 20
-65.23676625450653
 30
0.0
 10
659.8064703074734
 20
-65.20338437022873
 30
0.0
 10
659.8144591141111
 20
-65.18661384488121
 30
0.0
 11
659.7683289453671
 21
-65.28747978106537
 31
0.0
 11
659.7907581586715
 21
-65.23704681297329
 31
0.0
 11
659.8144591141111
 21
-65.18661384488121
 31
0.0
  0
SPLINE
  5
FC
330
55
100
AcDbEntity
  8
0
  6
Continuous
 62
     2
100
AcDbSpline
210
0.0
220
0.0
230
1.0
 70
     8
 71
     3
 72
    11
 73
     7
 74
     5
 42
0.000000001
 43
0.0000000001
 44
0.00000001
 40
0.0
 40
0.0
 40
0.0
 40
0.0
 40
0.0193999080612632
 40
0.0388668885824361
 40
0.0893854086200351
 40
0.1394602312071482
 40
0.1394602312071482
 40
0.1394602312071482
 40
0.1394602312071482
 10
659.8144591141111
 20
-65.18661384488121
 30
0.0
 10
659.8172792743356
 20
-65.18079448428016
 30
0.0
 10
659.8229293319868
 20
-65.16913563707503
 30
0.0
 10
659.8362224101903
 20
-65.14247024162424
 30
0.0
 10
659.8539100557296
 20
-65.10656740735392
 30
0.0
 10
659.86794138088
 20
-65.07611173503518
 30
0.0
 10
659.8749260914531
 20
-65.06095106245505
 30
0.0
 11
659.8144591141111
 21
-65.18661384488121
 31
0.0
 11
659.8229520002272
 21
-65.16917173168018
 31
0.0
 11
659.8315969999995
 21
-65.15172961847911
 31
0.0
 11
659.8537765923656
 21
-65.1063403404671
 31
0.0
 11
659.8749260914531
 21
-65.06095106245505
 31
0.0
  0
SPLINE
  5
FD
330
55
100
AcDbEntity
  8
0
  6
Continuous
 62
     2
100
AcDbSpline
210
0.0
220
0.0
230
1.0
 70
     8
 71
     3
 72
     9
 73
     5
 74
     3
 42
0.000000001
 43
0.0000000001
 44
0.00000001
 40
0.0
 40
0.0
 40
0.0
 40
0.0
 40
0.0557244968368475
 40
0.1109200932961198
 40
0.1109200932961198
 40
0.1109200932961198
 40
0.1109200932961198
 10
657.8144591141111
 20
-65.18661384488132
 30
0.0
 10
657.8064703074733
 20
-65.20338437022882
 30
0.0
 10
657.790568536855
 20
-65.23676625450645
 30
0.0
 10
657.775718533387
 20
-65.27062909221804
 30
0.0
 10
657.7683289453671
 20
-65.28747978106537
 30
0.0
 11
657.8144591141111
 21
-65.18661384488132
 31
0.0
 11
657.7907581586711
 21
-65.23704681297338
 31
0.0
 11
657.7683289453671
 21
-65.28747978106537
 31
0.0
  0
SPLINE
  5
FE
330
55
100
AcDbEntity
  8
0
  6
Continuous
 62
     2
100
AcDbSpline
210
0.0
220
0.0
230
1.0
 70
     8
 71
     3
 72
    11
 73
     7
 74
     5
 42
0.000000001
 43
0.0000000001
 44
0.00000001
 40
0.0
 40
0.0
 40
0.0
 40
0.0
 40
0.9504193100481613
 40
1.91518990877745
 40
2.570365879108617
 40
3.190076514536566
 40
3.190076514536566
 40
3.190076514536566
 40
3.190076514536566
 10
657.7683289453671
 20
-65.28747978106537
 30
0.0
 10
657.671619279775
 20
-65.59850064893435
 30
0.0
 10
657.4767396467478
 20
-66.22523878972018
 30
0.0
 10
657.7849572462601
 20
-67.06127044123612
 30
0.0
 10
658.0906103286555
 20
-67.74982595825699
 30
0.0
 10
658.0749648168168
 20
-68.18085228056607
 30
0.0
 10
658.0673596674021
 20
-68.39037020678916
 30
0.0
 11
657.7683289453671
 21
-65.28747978106537
 31
0.0
 11
657.5827487566645
 21
-66.21960469977223
 31
0.0
 11
657.8315969999995
 21
-67.15172961847904
 31
0.0
 11
658.0453677403889
 21
-67.77104991263411
 31
0.0
 11
658.0673596674021
 21
-68.39037020678916
 31
0.0
  0
SPLINE
  5
FF
330
55
100
AcDbEntity
  8
0
  6
Continuous
 62
     2
100
AcDbSpline
210
0.0
220
0.0
230
1.0
 70
     8
 71
     3
 72
     9
 73
     5
 74
     3
 42
0.000000001
 43
0.0000000001
 44
0.00000001
 40
0.0
 40
0.0
 40
0.0
 40
0.0
 40
0.146793980025977
 40
0.2970362085469275
 40
0.2970362085469275
 40
0.2970362085469275
 40
0.2970362085469275
 10
657.981684679532
 20
-64.78390782268116
 30
0.0
 10
657.966170853369
 20
-64.8303435574119
 30
0.0
 10
657.934778756385
 20
-64.92430581370735
 30
0.0
 10
657.8950307953764
 20
-65.01505149773809
 30
0.0
 10
657.8749260914531
 20
-65.06095106245516
 30
0.0
 11
657.981684679532
 21
-64.78390782268116
 31
0.0
 11
657.9331024452867
 21
-64.92242944256809
 31
0.0
 11
657.8749260914531
 21
-65.06095106245516
 31
0.0
  0
SPLINE
  5
100
330
55
100
AcDbEntity
  8
0
  6
Continuous
 62
     2
100
AcDbSpline
210
0.0
220
0.0
230
1.0
 70
     8
 71
     3
 72
     9
 73
     5
 74
     3
 42
0.000000001
 43
0.0000000001
 44
0.00000001
 40
0.0
 40
0.0
 40
0.0
 40
0.0
 40
0.58035561208535
 40
1.165290235679034
 40
1.165290235679034
 40
1.165290235679034
 40
1.165290235679034
 10
658.01379752255
 20
-63.63096296267463
 30
0.0
 10
658.0498666112206
 20
-63.823495025075
 30
0.0
 10
658.1222893544023
 20
-64.21007823063563
 30
0.0
 10
658.028675529633
 20
-64.59213086698274
 30
0.0
 10
657.981684679532
 20
-64.78390782268116
 30
0.0
 11
658.01379752255
 21
-63.63096296267463
 31
0.0
 11
658.080821216678
 21
-64.20743539268221
 31
0.0
 11
657.981684679532
 21
-64.78390782268116
 31
0.0
  0
SPLINE
  5
101
330
55
100
AcDbEntity
  8
0
  6
Continuous
 62
     2
100
AcDbSpline
210
0.0
220
0.0
230
1.0
 70
     8
 71
     3
 72
     9
 73
     5
 74
     3
 42
0.000000001
 43
0.0000000001
 44
0.00000001
 40
0.0
 40
0.0
 40
0.0
 40
0.0
 40
0.4011234271149967
 40
0.8042363040712337
 40
0.8042363040712337
 40
0.8042363040712337
 40
0.8042363040712337
 10
657.6122220667651
 20
-53.80172923695932
 30
0.0
 10
657.5955923786333
 20
-53.93522667027716
 30
0.0
 10
657.5622505440105
 20
-54.20288364396461
 30
0.0
 10
657.6088596849546
 20
-54.46856163608165
 30
0.0
 10
657.6322219141571
 20
-54.60172923695939
 30
0.0
 11
657.6122220667651
 21
-53.80172923695932
 31
0.0
 11
657.582221990461
 21
-54.20172923695932
 31
0.0
 11
657.6322219141571
 21
-54.60172923695939
 31
0.0
  0
SPLINE
  5
102
330
55
100
AcDbEntity
  8
0
  6
Continuous
 62
     2
100
AcDbSpline
210
0.0
220
0.0
230
1.0
 70
     8
 71
     3
 72
    19
 73
    15
 74
    13
 42
0.000000001
 43
0.0000000001
 44
0.00000001
 40
0.0
 40
0.0
 40
0.0
 40
0.0
 40
0.2866194649123676
 40
0.5861016830083527
 40
1.616878087831712
 40
2.647654490927189
 40
3.678430895397537
 40
4.709207298592387
 40
5.739983702991975
 40
6.770760109151851
 40
7.801536510325104
 40
8.832312914672496
 40
9.094108175787033
 40
9.34571527443961
 40
9.34571527443961
 40
9.34571527443961
 40
9.34571527443961
 10
657.6322219141571
 20
-54.60172923695939
 30
0.0
 10
657.6562962637898
 20
-54.69454785111105
 30
0.0
 10
657.7055253445998
 20
-54.8843505470332
 30
0.0
 10
657.9400574842687
 20
-55.36809612646408
 30
0.0
 10
658.1990308840034
 20
-56.15942657220514
 30
0.0
 10
657.8336139364532
 20
-57.14967769896378
 30
0.0
 10
657.4560954276053
 20
-58.15224035943872
 30
0.0
 10
657.8315864130285
 20
-59.15173857505538
 30
0.0
 10
658.2071408627259
 20
-60.1511830668409
 30
0.0
 10
657.8294320768164
 20
-61.15390687190343
 30
0.0
 10
657.4647127736091
 20
-62.14356714593612
 30
0.0
 10
657.7175987529819
 20
-62.92392095535395
 30
0.0
 10
657.9425922622246
 20
-63.38532706890853
 30
0.0
 10
657.9903785278361
 20
-63.55017476749525
 30
0.0
 10
658.01379752255
 20
-63.63096296267463
 30
0.0
 11
657.6322219141571
 21
-54.60172923695939
 31
0.0
 11
657.7130031808485
 21
-54.87672942771918
 31
0.0
 11
657.831596999999
 21
-55.15172961847903
 31
0.0
 11
658.081596999999
 21
-56.15172961847905
 31
0.0
 11
657.831596999999
 21
-57.15172961847907
 31
0.0
 11
657.5815969999991
 21
-58.15172961847907
 31
0.0
 11
657.831596999999
 21
-59.15172961847907
 31
0.0
 11
658.0815969999989
 21
-60.15172961847906
 31
0.0
 11
657.831596999999
 21
-61.15172961847907
 31
0.0
 11
657.581596999999
 21
-62.15172961847907
 31
0.0
 11
657.8315969999987
 21
-63.15172961847907
 31
0.0
 11
657.9370512986632
 21
-63.39134629058123
 31
0.0
 11
658.01379752255
 21
-63.63096296267463
 31
0.0
  0
SPLINE
  5
103
330
55
100
AcDbEntity
  8
0
  6
Continuous
 62
     2
100
AcDbSpline
210
0.0
220
0.0
230
1.0
 70
     8
 71
     3
 72
    11
 73
     7
 74
     5
 42
0.000000001
 43
0.0000000001
 44
0.00000001
 40
0.0
 40
0.0
 40
0.0
 40
0.0
 40
0.6197106354278601
 40
1.274886605758996
 40
2.239657204488338
 40
3.190076514536436
 40
3.190076514536436
 40
3.190076514536436
 40
3.190076514536436
 10
660.0673596674021
 20
-68.39037020678904
 30
0.0
 10
660.0749648168165
 20
-68.18085228056597
 30
0.0
 10
660.0906103286557
 20
-67.74982595825693
 30
0.0
 10
659.7849572462599
 20
-67.06127044123616
 30
0.0
 10
659.4767396467475
 20
-66.22523878972014
 30
0.0
 10
659.6716192797754
 20
-65.59850064893435
 30
0.0
 10
659.7683289453671
 20
-65.28747978106537
 30
0.0
 11
660.0673596674021
 21
-68.39037020678904
 31
0.0
 11
660.045367740389
 21
-67.77104991263408
 31
0.0
 11
659.8315969999995
 21
-67.15172961847908
 31
0.0
 11
659.5827487566646
 21
-66.21960469977219
 31
0.0
 11
659.7683289453671
 21
-65.28747978106537
 31
0.0
  0
SPLINE
  5
104
330
55
100
AcDbEntity
  8
0
  6
Continuous
 62
     2
100
AcDbSpline
210
0.0
220
0.0
230
1.0
 70
     8
 71
     3
 72
    19
 73
    15
 74
    13
 42
0.000000001
 43
0.0000000001
 44
0.00000001
 40
0.0
 40
0.0
 40
0.0
 40
0.0
 40
0.2516070986572199
 40
0.5134023597667896
 40
1.54417876411432
 40
2.574955165287572
 40
3.605731571447469
 40
4.636507975847092
 40
5.66728437904197
 40
6.698060783512345
 40
7.728837186607801
 40
8.759613591431126
 40
9.059095809527177
 40
9.345715274439646
 40
9.345715274439646
 40
9.345715274439646
 40
9.345715274439646
 10
660.01379752255
 20
-63.63096296267452
 30
0.0
 10
659.9903785278352
 20
-63.55017476749369
 30
0.0
 10
659.9425922622239
 20
-63.38532706890718
 30
0.0
 10
659.7175987529821
 20
-62.92392095535206
 30
0.0
 10
659.4647127736088
 20
-62.14356714593629
 30
0.0
 10
659.8294320768164
 20
-61.15390687190337
 30
0.0
 10
660.207140862726
 20
-60.15118306684094
 30
0.0
 10
659.8315864130288
 20
-59.15173857505538
 30
0.0
 10
659.4560954276051
 20
-58.15224035943872
 30
0.0
 10
659.8336139364533
 20
-57.1496776989638
 30
0.0
 10
660.1990308840032
 20
-56.15942657220515
 30
0.0
 10
659.9400574842686
 20
-55.36809612646413
 30
0.0
 10
659.7055253445999
 20
-54.88435054703316
 30
0.0
 10
659.6562962637898
 20
-54.69454785111098
 30
0.0
 10
659.6322219141571
 20
-54.60172923695927
 30
0.0
 11
660.01379752255
 21
-63.63096296267452
 31
0.0
 11
659.9370512986613
 21
-63.39134629057683
 31
0.0
 11
659.8315969999992
 21
-63.1517296184791
 31
0.0
 11
659.581596999999
 21
-62.15172961847907
 31
0.0
 11
659.831596999999
 21
-61.15172961847907
 31
0.0
 11
660.081596999999
 21
-60.15172961847907
 31
0.0
 11
659.831596999999
 21
-59.15172961847907
 31
0.0
 11
659.581596999999
 21
-58.15172961847907
 31
0.0
 11
659.831596999999
 21
-57.15172961847907
 31
0.0
 11
660.081596999999
 21
-56.15172961847907
 31
0.0
 11
659.831596999999
 21
-55.15172961847909
 31
0.0
 11
659.7130031808485
 21
-54.87672942771917
 31
0.0
 11
659.6322219141571
 21
-54.60172923695927
 31
0.0
  0
ENDBLK
  5
57
330
55
100
AcDbEntity
  8
0
100
AcDbBlockEnd
  0
BLOCK
  5
5A
330
58
100
AcDbEntity
  8
0
100
AcDbBlockBegin
  2
Left1
 70
     0
 10
1125.25
 20
-61.15172961847907
 30
0.0
  3
Left1
  1

  0
INSERT
  5
59
330
58
100
AcDbEntity
  8
0
100
AcDbBlockReference
  2
EB_56_18-select__3
 10
621.7499999999991
 20
-68.50172923695925
 30
0.0
  0
ENDBLK
  5
5B
330
58
100
AcDbEntity
  8
0
100
AcDbBlockEnd
  0
BLOCK
  5
5D
330
5C
100
AcDbEntity
  8
0
100
AcDbBlockBegin
  2
EB_56_18-select__4
 70
     0
 10
435.7500000000021
 20
-68.5002832369604
 30
0.0
  3
EB_56_18-select__4
  1

  0
LINE
  5
105
330
5C
100
AcDbEntity
  8
0
  6
Continuous
 62
     7
100
AcDbLine
 10
508.7500000000021
 20
-68.5002832369604
 30
0.0
 11
508.7500000000021
 21
-67.8116422671253
 31
0.0
  0
LINE
  5
106
330
5C
100
AcDbEntity
  8
0
  6
Continuous
 62
     7
100
AcDbLine
 10
471.320998066768
 20
-68.5002832369603
 30
0.0
 11
435.7500000000021
 21
-68.5002832369603
 31
0.0
  0
LINE
  5
107
330
5C
100
AcDbEntity
  8
0
  6
Continuous
 62
     7
100
AcDbLine
 10
508.7500000000021
 20
-68.5002832369604
 30
0.0
 11
473.320998066768
 21
-68.5002832369604
 31
0.0
  0
LINE
  5
108
330
5C
100
AcDbEntity
  8
0
  6
Continuous
 62
     7
100
AcDbLine
 10
465.0500000000021
 20
-65.30028323696041
 30
0.0
 11
470.0500000000021
 21
-65.30028323696041
 31
0.0
  0
LINE
  5
109
330
5C
100
AcDbEntity
  8
0
  6
Continuous
 62
     7
100
AcDbLine
 10
447.2500000000021
 20
-65.30028323696041
 30
0.0
 11
452.2500000000021
 21
-65.30028323696041
 31
0.0
  0
LINE
  5
10A
330
5C
100
AcDbEntity
  8
0
  6
Continuous
 62
     7
100
AcDbLine
 10
465.0500000000021
 20
-66.80028323696041
 30
0.0
 11
465.0500000000021
 21
-65.30028323696041
 31
0.0
  0
LINE
  5
10B
330
5C
100
AcDbEntity
  8
0
  6
Continuous
 62
     2
100
AcDbLine
 10
471.3229535087975
 20
-67.81164226712404
 30
0.0
 11
435.7500000000021
 21
-67.8116422671252
 31
0.0
  0
LINE
  5
10C
330
5C
100
AcDbEntity
  8
0
  6
Continuous
 62
     2
100
AcDbLine
 10
508.7500000000021
 20
-67.8116422671253
 30
0.0
 11
473.3229535087975
 21
-67.8116422671241
 31
0.0
  0
LINE
  5
10D
330
5C
100
AcDbEntity
  8
0
  6
Continuous
 62
     2
100
AcDbLine
 10
492.2500000000021
 20
-65.2860337810666
 30
0.0
 11
479.4500000000021
 21
-65.2860337810666
 31
0.0
  0
LINE
  5
10E
330
5C
100
AcDbEntity
  8
0
  6
Continuous
 62
     7
100
AcDbLine
 10
508.7500000000021
 20
-65.2860337810666
 30
0.0
 11
508.7500000000021
 21
-67.8116422671253
 31
0.0
  0
LINE
  5
10F
330
5C
100
AcDbEntity
  8
0
  6
Continuous
 62
     7
100
AcDbLine
 10
465.0500000000021
 20
-66.80028323696041
 30
0.0
 11
470.0500000000021
 21
-66.80028323696041
 31
0.0
  0
LINE
  5
110
330
5C
100
AcDbEntity
  8
0
  6
Continuous
 62
     7
100
AcDbLine
 10
435.7500000000021
 20
-65.28603378106651
 30
0.0
 11
435.7500000000021
 21
-65.18516784488236
 31
0.0
  0
LINE
  5
111
330
5C
100
AcDbEntity
  8
0
  6
Continuous
 62
     7
100
AcDbLine
 10
435.7500000000021
 20
-64.51083062730838
 30
0.0
 11
435.7500000000021
 21
-64.04477125996677
 31
0.0
  0
LINE
  5
112
330
5C
100
AcDbEntity
  8
0
  6
Continuous
 62
     7
100
AcDbLine
 10
435.7500000000021
 20
-65.18516784488236
 30
0.0
 11
435.7500000000021
 21
-64.51083062730838
 31
0.0
  0
LINE
  5
113
330
5C
100
AcDbEntity
  8
0
  6
Continuous
 62
     7
100
AcDbLine
 10
435.7500000000021
 20
-64.04477125996677
 30
0.0
 11
435.7500000000021
 21
-53.80028323696041
 31
0.0
  0
LINE
  5
114
330
5C
100
AcDbEntity
  8
0
  6
Continuous
 62
     7
100
AcDbLine
 10
435.7500000000021
 20
-65.28603378106651
 30
0.0
 11
435.7500000000021
 21
-67.8116422671252
 31
0.0
  0
LINE
  5
115
330
5C
100
AcDbEntity
  8
0
  6
Continuous
 62
     7
100
AcDbLine
 10
435.7500000000021
 20
-68.5002832369603
 30
0.0
 11
435.7500000000021
 21
-67.8116422671252
 31
0.0
  0
LINE
  5
116
330
5C
100
AcDbEntity
  8
0
  6
Continuous
 62
     7
100
AcDbLine
 10
508.7500000000021
 20
-65.18516784488246
 30
0.0
 11
473.0844851141138
 21
-65.18516784488246
 31
0.0
  0
LINE
  5
117
330
5C
100
AcDbEntity
  8
0
  6
Continuous
 62
     7
100
AcDbLine
 10
508.7500000000021
 20
-65.18516784488246
 30
0.0
 11
508.7500000000021
 21
-65.2860337810666
 31
0.0
  0
LINE
  5
118
330
5C
100
AcDbEntity
  8
0
  6
Continuous
 62
     7
100
AcDbLine
 10
508.7500000000021
 20
-65.18516784488246
 30
0.0
 11
508.7500000000021
 21
-64.5108306273085
 31
0.0
  0
LINE
  5
119
330
5C
100
AcDbEntity
  8
0
  6
Continuous
 62
     2
100
AcDbLine
 10
508.7500000000021
 20
-65.2860337810666
 30
0.0
 11
497.2500000000021
 21
-65.2860337810666
 31
0.0
  0
LINE
  5
11A
330
5C
100
AcDbEntity
  8
0
  6
Continuous
 62
     7
100
AcDbLine
 10
472.8822480667682
 20
-53.80028323696051
 30
0.0
 11
508.7500000000021
 21
-53.80028323696051
 31
0.0
  0
LINE
  5
11B
330
5C
100
AcDbEntity
  8
0
  6
Continuous
 62
     7
100
AcDbLine
 10
508.7500000000021
 20
-64.04477125996686
 30
0.0
 11
508.7500000000021
 21
-53.80028323696051
 31
0.0
  0
LINE
  5
11C
330
5C
100
AcDbEntity
  8
0
  6
Continuous
 62
     7
100
AcDbLine
 10
470.0500000000021
 20
-66.80028323696041
 30
0.0
 11
470.0500000000021
 21
-65.30028323696041
 31
0.0
  0
LINE
  5
11D
330
5C
100
AcDbEntity
  8
0
  6
Continuous
 62
     7
100
AcDbLine
 10
435.7500000000021
 20
-53.80028323696041
 30
0.0
 11
470.8822480667682
 21
-53.80028323696041
 31
0.0
  0
LINE
  5
11E
330
5C
100
AcDbEntity
  8
0
  6
Continuous
 62
     7
100
AcDbLine
 10
508.7500000000021
 20
-64.5108306273085
 30
0.0
 11
508.7500000000021
 21
-64.04477125996686
 31
0.0
  0
LINE
  5
11F
330
5C
100
AcDbEntity
  8
0
  6
Continuous
 62
     2
100
AcDbLine
 10
508.7500000000021
 20
-64.5108306273085
 30
0.0
 11
473.3191244636083
 21
-64.51083062730852
 31
0.0
  0
LINE
  5
120
330
5C
100
AcDbEntity
  8
0
  6
Continuous
 62
     7
100
AcDbLine
 10
435.7500000000021
 20
-64.04477125996677
 30
0.0
 11
471.3488397855523
 21
-64.04477125996677
 31
0.0
  0
LINE
  5
121
330
5C
100
AcDbEntity
  8
0
  6
Continuous
 62
     2
100
AcDbLine
 10
471.3191244636087
 20
-64.5108306273079
 30
0.0
 11
435.7500000000021
 21
-64.51083062730838
 31
0.0
  0
LINE
  5
122
330
5C
100
AcDbEntity
  8
0
  6
Continuous
 62
     7
100
AcDbLine
 10
473.3488397855523
 20
-64.04477125996686
 30
0.0
 11
508.7500000000021
 21
-64.04477125996686
 31
0.0
  0
LINE
  5
123
330
5C
100
AcDbEntity
  8
0
  6
Continuous
 62
     7
100
AcDbLine
 10
447.2500000000021
 20
-66.80028323696041
 30
0.0
 11
447.2500000000021
 21
-65.30028323696041
 31
0.0
  0
LINE
  5
124
330
5C
100
AcDbEntity
  8
0
  6
Continuous
 62
     7
100
AcDbLine
 10
447.2500000000021
 20
-65.18516784488236
 30
0.0
 11
447.2500000000021
 21
-65.30028323696041
 31
0.0
  0
LINE
  5
125
330
5C
100
AcDbEntity
  8
0
  6
Continuous
 62
     7
100
AcDbLine
 10
452.2500000000021
 20
-65.18516784488236
 30
0.0
 11
452.2500000000021
 21
-65.30028323696041
 31
0.0
  0
LINE
  5
126
330
5C
100
AcDbEntity
  8
0
  6
Continuous
 62
     7
100
AcDbLine
 10
447.2500000000021
 20
-66.80028323696041
 30
0.0
 11
452.2500000000021
 21
-66.80028323696041
 31
0.0
  0
LINE
  5
127
330
5C
100
AcDbEntity
  8
0
  6
Continuous
 62
     7
100
AcDbLine
 10
452.2500000000021
 20
-66.80028323696041
 30
0.0
 11
452.2500000000021
 21
-65.30028323696041
 31
0.0
  0
LINE
  5
128
330
5C
100
AcDbEntity
  8
0
  6
Continuous
 62
     7
100
AcDbLine
 10
474.4500000000021
 20
-66.80028323696051
 30
0.0
 11
474.4500000000021
 21
-65.30028323696051
 31
0.0
  0
LINE
  5
129
330
5C
100
AcDbEntity
  8
0
  6
Continuous
 62
     7
100
AcDbLine
 10
492.2500000000021
 20
-66.80028323696051
 30
0.0
 11
492.2500000000021
 21
-65.30028323696051
 31
0.0
  0
LINE
  5
12A
330
5C
100
AcDbEntity
  8
0
  6
Continuous
 62
     7
100
AcDbLine
 10
479.4500000000021
 20
-65.30028323696051
 30
0.0
 11
479.4500000000021
 21
-66.80028323696051
 31
0.0
  0
LINE
  5
12B
330
5C
100
AcDbEntity
  8
0
  6
Continuous
 62
     7
100
AcDbLine
 10
474.4500000000021
 20
-66.80028323696051
 30
0.0
 11
479.4500000000021
 21
-66.80028323696051
 31
0.0
  0
LINE
  5
12C
330
5C
100
AcDbEntity
  8
0
  6
Continuous
 62
     7
100
AcDbLine
 10
492.2500000000021
 20
-65.18516784488246
 30
0.0
 11
492.2500000000021
 21
-65.30028323696051
 31
0.0
  0
LINE
  5
12D
330
5C
100
AcDbEntity
  8
0
  6
Continuous
 62
     7
100
AcDbLine
 10
497.2500000000021
 20
-65.18516784488246
 30
0.0
 11
497.2500000000021
 21
-65.30028323696051
 31
0.0
  0
LINE
  5
12E
330
5C
100
AcDbEntity
  8
0
  6
Continuous
 62
     7
100
AcDbLine
 10
492.2500000000021
 20
-66.80028323696051
 30
0.0
 11
497.2500000000021
 21
-66.80028323696051
 31
0.0
  0
LINE
  5
12F
330
5C
100
AcDbEntity
  8
0
  6
Continuous
 62
     7
100
AcDbLine
 10
492.2500000000021
 20
-65.30028323696051
 30
0.0
 11
497.2500000000021
 21
-65.30028323696051
 31
0.0
  0
LINE
  5
130
330
5C
100
AcDbEntity
  8
0
  6
Continuous
 62
     7
100
AcDbLine
 10
497.2500000000021
 20
-66.80028323696051
 30
0.0
 11
497.2500000000021
 21
-65.30028323696051
 31
0.0
  0
LINE
  5
131
330
5C
100
AcDbEntity
  8
0
  6
Continuous
 62
     7
100
AcDbLine
 10
474.4500000000021
 20
-65.30028323696051
 30
0.0
 11
479.4500000000021
 21
-65.30028323696051
 31
0.0
  0
LINE
  5
132
330
5C
100
AcDbEntity
  8
0
  6
Continuous
 62
     7
100
AcDbLine
 10
479.4500000000021
 20
-65.18516784488246
 30
0.0
 11
479.4500000000021
 21
-65.30028323696051
 31
0.0
  0
LINE
  5
133
330
5C
100
AcDbEntity
  8
0
  6
Continuous
 62
     7
100
AcDbLine
 10
474.4500000000021
 20
-65.18516784488246
 30
0.0
 11
474.4500000000021
 21
-65.30028323696051
 31
0.0
  0
LINE
  5
134
330
5C
100
AcDbEntity
  8
0
  6
Continuous
 62
     7
100
AcDbLine
 10
470.0500000000021
 20
-65.18516784488236
 30
0.0
 11
470.0500000000021
 21
-65.30028323696041
 31
0.0
  0
LINE
  5
135
330
5C
100
AcDbEntity
  8
0
  6
Continuous
 62
     7
100
AcDbLine
 10
465.0500000000021
 20
-65.18516784488236
 30
0.0
 11
465.0500000000021
 21
-65.30028323696041
 31
0.0
  0
LINE
  5
136
330
5C
100
AcDbEntity
  8
0
  6
Continuous
 62
     2
100
AcDbLine
 10
471.0383549453695
 20
-65.28603378106651
 30
0.0
 11
470.0500000000021
 21
-65.28603378106651
 31
0.0
  0
LINE
  5
137
330
5C
100
AcDbEntity
  8
0
  6
Continuous
 62
     2
100
AcDbLine
 10
447.2500000000021
 20
-65.28603378106651
 30
0.0
 11
435.7500000000021
 21
-65.28603378106651
 31
0.0
  0
LINE
  5
138
330
5C
100
AcDbEntity
  8
0
  6
Continuous
 62
     7
100
AcDbLine
 10
471.0844851141139
 20
-65.18516784488236
 30
0.0
 11
435.7500000000021
 21
-65.18516784488236
 31
0.0
  0
LINE
  5
139
330
5C
100
AcDbEntity
  8
0
  6
Continuous
 62
     2
100
AcDbLine
 10
465.0500000000021
 20
-65.28603378106651
 30
0.0
 11
452.2500000000021
 21
-65.28603378106651
 31
0.0
  0
LINE
  5
13A
330
5C
100
AcDbEntity
  8
0
  6
Continuous
 62
     2
100
AcDbLine
 10
474.4500000000021
 20
-65.2860337810666
 30
0.0
 11
473.0383549453695
 21
-65.2860337810666
 31
0.0
  0
SPLINE
  5
13B
330
5C
100
AcDbEntity
  8
0
  6
Continuous
 62
     2
100
AcDbSpline
210
0.0
220
0.0
230
1.0
 70
     8
 71
     3
 72
     9
 73
     5
 74
     3
 42
0.000000001
 43
0.0000000001
 44
0.00000001
 40
0.0
 40
0.0
 40
0.0
 40
0.0
 40
0.3456790252180637
 40
0.6911903465964027
 40
0.6911903465964027
 40
0.6911903465964027
 40
0.6911903465964027
 10
473.320998066768
 20
-68.5002832369604
 30
0.0
 10
473.3361459064216
 20
-68.38552367280438
 30
0.0
 10
473.366434217006
 20
-68.15606021840821
 30
0.0
 10
473.3374447402405
 20
-67.92642967883053
 30
0.0
 10
473.3229535087975
 20
-67.8116422671241
 30
0.0
 11
473.320998066768
 21
-68.5002832369604
 31
0.0
 11
473.3516149368645
 21
-68.15596275204244
 31
0.0
 11
473.3229535087975
 21
-67.8116422671241
 31
0.0
  0
SPLINE
  5
13C
330
5C
100
AcDbEntity
  8
0
  6
Continuous
 62
     2
100
AcDbSpline
210
0.0
220
0.0
230
1.0
 70
     8
 71
     3
 72
    11
 73
     7
 74
     5
 42
0.000000001
 43
0.0000000001
 44
0.00000001
 40
0.0
 40
0.0
 40
0.0
 40
0.0
 40
0.3410166877566802
 40
0.6993370651573219
 40
1.664107663693411
 40
2.614526973605672
 40
2.614526973605672
 40
2.614526973605672
 40
2.614526973605672
 10
471.3229535087975
 20
-67.81164226712404
 30
0.0
 10
471.2992903889092
 20
-67.69989620703325
 30
0.0
 10
471.2507634614385
 20
-67.47073392348616
 30
0.0
 10
471.0118142326123
 20
-66.97105256380452
 30
0.0
 10
470.7492874298215
 20
-66.22120098881247
 30
0.0
 10
470.9424816625167
 20
-65.59619504249315
 30
0.0
 10
471.0383549453695
 20
-65.28603378106651
 30
0.0
 11
471.3229535087975
 21
-67.81164226712404
 31
0.0
 11
471.2396254582814
 21
-67.48096294280214
 31
0.0
 11
471.1016230000021
 21
-67.15028361848023
 31
0.0
 11
470.8527747566673
 21
-66.21815869977338
 31
0.0
 11
471.0383549453695
 21
-65.28603378106651
 31
0.0
  0
SPLINE
  5
13D
330
5C
100
AcDbEntity
  8
0
  6
Continuous
 62
     2
100
AcDbSpline
210
0.0
220
0.0
230
1.0
 70
     8
 71
     3
 72
    11
 73
     7
 74
     5
 42
0.000000001
 43
0.0000000001
 44
0.00000001
 40
0.0
 40
0.0
 40
0.0
 40
0.0
 40
0.950419309912192
 40
1.915189908448267
 40
2.273510285848935
 40
2.614526973605629
 40
2.614526973605629
 40
2.614526973605629
 40
2.614526973605629
 10
473.0383549453695
 20
-65.2860337810666
 30
0.0
 10
472.9424816625167
 20
-65.59619504249324
 30
0.0
 10
472.7492874298214
 20
-66.22120098881248
 30
0.0
 10
473.0118142326124
 20
-66.97105256380458
 30
0.0
 10
473.2507634614385
 20
-67.47073392348618
 30
0.0
 10
473.2992903889091
 20
-67.6998962070333
 30
0.0
 10
473.3229535087975
 20
-67.8116422671241
 30
0.0
 11
473.0383549453695
 21
-65.2860337810666
 31
0.0
 11
472.8527747566673
 21
-66.21815869977341
 31
0.0
 11
473.1016230000021
 21
-67.15028361848024
 31
0.0
 11
473.2396254582814
 21
-67.48096294280218
 31
0.0
 11
473.3229535087975
 21
-67.8116422671241
 31
0.0
  0
SPLINE
  5
13E
330
5C
100
AcDbEntity
  8
0
  6
Continuous
 62
     2
100
AcDbSpline
210
0.0
220
0.0
230
1.0
 70
     8
 71
     3
 72
     9
 73
     5
 74
     3
 42
0.000000001
 43
0.0000000001
 44
0.00000001
 40
0.0
 40
0.0
 40
0.0
 40
0.0
 40
0.4031128769561736
 40
0.8042363040711886
 40
0.8042363040711886
 40
0.8042363040711886
 40
0.8042363040711886
 10
472.9022479141601
 20
-54.60028323696054
 30
0.0
 10
472.8788856849576
 20
-54.46711563608283
 30
0.0
 10
472.8322765440137
 20
-54.20143764396579
 30
0.0
 10
472.8656183786365
 20
-53.93378067027835
 30
0.0
 10
472.8822480667682
 20
-53.80028323696051
 30
0.0
 11
472.9022479141601
 21
-54.60028323696054
 31
0.0
 11
472.8522479904641
 21
-54.20028323696053
 31
0.0
 11
472.8822480667682
 21
-53.80028323696051
 31
0.0
  0
SPLINE
  5
13F
330
5C
100
AcDbEntity
  8
0
  6
Continuous
 62
     2
100
AcDbSpline
210
0.0
220
0.0
230
1.0
 70
     8
 71
     3
 72
    11
 73
     7
 74
     5
 42
0.000000001
 43
0.0000000001
 44
0.00000001
 40
0.0
 40
0.0
 40
0.0
 40
0.0
 40
0.0277441761327987
 40
0.0556252867655581
 40
0.3551075036689931
 40
0.6417269686252365
 40
0.6417269686252365
 40
0.6417269686252365
 40
0.6417269686252365
 10
473.1259978187803
 20
-55.2002832369605
 30
0.0
 10
473.1220106023621
 20
-55.19193838991615
 30
0.0
 10
473.114016503124
 20
-55.1752075026641
 30
0.0
 10
473.0611988745308
 20
-55.06929015648166
 30
0.0
 10
472.9768575542864
 20
-54.88187435180208
 30
0.0
 10
472.9267512383947
 20
-54.69276351777982
 30
0.0
 10
472.9022479141601
 20
-54.60028323696054
 30
0.0
 11
473.1259978187803
 21
-55.2002832369605
 31
0.0
 11
473.1139666570067
 21
-55.17528342772037
 31
0.0
 11
473.1016230000021
 21
-55.15028361848024
 31
0.0
 11
472.9830291808517
 21
-54.87528342772039
 31
0.0
 11
472.9022479141601
 21
-54.60028323696054
 31
0.0
  0
SPLINE
  5
140
330
5C
100
AcDbEntity
  8
0
  6
Continuous
 62
     2
100
AcDbSpline
210
0.0
220
0.0
230
1.0
 70
     8
 71
     3
 72
    11
 73
     7
 74
     5
 42
0.000000001
 43
0.0000000001
 44
0.00000001
 40
0.0
 40
0.0
 40
0.0
 40
0.0
 40
0.019399907716257
 40
0.0388668883300271
 40
0.3856570244112224
 40
0.7160300745118027
 40
0.7160300745118027
 40
0.7160300745118027
 40
0.7160300745118027
 10
473.0844851141138
 20
-65.18516784488246
 30
0.0
 10
473.087304734669
 20
-65.17934806920864
 30
0.0
 10
473.0929537113934
 20
-65.16768839039479
 30
0.0
 10
473.1503609856712
 20
-65.05268079388361
 30
0.0
 10
473.2445965041404
 20
-64.83893855486922
 30
0.0
 10
473.2946866120168
 20
-64.61841784433771
 30
0.0
 10
473.3191244636083
 20
-64.51083062730852
 30
0.0
 11
473.0844851141138
 21
-65.18516784488246
 31
0.0
 11
473.0929780002297
 21
-65.16772573168136
 31
0.0
 11
473.1016230000019
 21
-65.15028361848024
 31
0.0
 11
473.2359299898001
 21
-64.83055712289425
 31
0.0
 11
473.3191244636083
 21
-64.51083062730852
 31
0.0
  0
SPLINE
  5
141
330
5C
100
AcDbEntity
  8
0
  6
Continuous
 62
     2
100
AcDbSpline
210
0.0
220
0.0
230
1.0
 70
     8
 71
     3
 72
     9
 73
     5
 74
     3
 42
0.000000001
 43
0.0000000001
 44
0.00000001
 40
0.0
 40
0.0
 40
0.0
 40
0.0
 40
0.345511321378306
 40
0.6911903465963505
 40
0.6911903465963505
 40
0.6911903465963505
 40
0.6911903465963505
 10
471.3229535087975
 20
-67.81164226712404
 30
0.0
 10
471.3374447402404
 20
-67.92642967883046
 30
0.0
 10
471.3664342170061
 20
-68.15606021840814
 30
0.0
 10
471.3361459064216
 20
-68.38552367280431
 30
0.0
 10
471.320998066768
 20
-68.5002832369603
 30
0.0
 11
471.3229535087975
 21
-67.81164226712404
 31
0.0
 11
471.3516149368644
 21
-68.15596275204236
 31
0.0
 11
471.320998066768
 21
-68.5002832369603
 31
0.0
  0
SPLINE
  5
142
330
5C
100
AcDbEntity
  8
0
  6
Continuous
 62
     2
100
AcDbSpline
210
0.0
220
0.0
230
1.0
 70
     8
 71
     3
 72
     9
 73
     5
 74
     3
 42
0.000000001
 43
0.0000000001
 44
0.00000001
 40
0.0
 40
0.0
 40
0.0
 40
0.0
 40
0.2330332092303029
 40
0.4677911477362801
 40
0.4677911477362801
 40
0.4677911477362801
 40
0.4677911477362801
 10
471.3488397855523
 20
-64.04477125996677
 30
0.0
 10
471.3506494001111
 20
-64.12258996431831
 30
0.0
 10
471.3542820026477
 20
-64.2788033254315
 30
0.0
 10
471.3308724200305
 20
-64.43329832145051
 30
0.0
 10
471.3191244636087
 20
-64.5108306273079
 30
0.0
 11
471.3488397855523
 21
-64.04477125996677
 31
0.0
 11
471.3475578329483
 21
-64.27780094363746
 31
0.0
 11
471.3191244636087
 21
-64.5108306273079
 31
0.0
  0
SPLINE
  5
143
330
5C
100
AcDbEntity
  8
0
  6
Continuous
 62
     2
100
AcDbSpline
210
0.0
220
0.0
230
1.0
 70
     8
 71
     3
 72
     9
 73
     5
 74
     3
 42
0.000000001
 43
0.0000000001
 44
0.00000001
 40
0.0
 40
0.0
 40
0.0
 40
0.0
 40
0.0726559278965376
 40
0.1450808671685636
 40
0.1450808671685636
 40
0.1450808671685636
 40
0.1450808671685636
 10
471.335997952312
 20
-63.90028323696042
 30
0.0
 10
471.3387896418082
 20
-63.9243453425331
 30
0.0
 10
471.3443641255279
 20
-63.9723930570822
 30
0.0
 10
471.3473494898803
 20
-64.02067081341085
 30
0.0
 10
471.3488397855523
 20
-64.04477125996677
 30
0.0
 11
471.335997952312
 21
-63.90028323696042
 31
0.0
 11
471.3437236682317
 21
-63.97252724846359
 31
0.0
 11
471.3488397855523
 21
-64.04477125996677
 31
0.0
  0
SPLINE
  5
144
330
5C
100
AcDbEntity
  8
0
  6
Continuous
 62
     2
100
AcDbSpline
210
0.0
220
0.0
230
1.0
 70
     8
 71
     3
 72
     9
 73
     5
 74
     3
 42
0.000000001
 43
0.0000000001
 44
0.00000001
 40
0.0
 40
0.0
 40
0.0
 40
0.0
 40
0.055724496836812
 40
0.1109200932963701
 40
0.1109200932963701
 40
0.1109200932963701
 40
0.1109200932963701
 10
471.0844851141139
 20
-65.18516784488236
 30
0.0
 10
471.0764963074761
 20
-65.20193837022985
 30
0.0
 10
471.0605945368579
 20
-65.23532025450767
 30
0.0
 10
471.0457445333896
 20
-65.26918309221917
 30
0.0
 10
471.0383549453695
 20
-65.28603378106651
 30
0.0
 11
471.0844851141139
 21
-65.18516784488236
 31
0.0
 11
471.060784158674
 21
-65.23560081297443
 31
0.0
 11
471.0383549453695
 21
-65.28603378106651
 31
0.0
  0
SPLINE
  5
145
330
5C
100
AcDbEntity
  8
0
  6
Continuous
 62
     2
100
AcDbSpline
210
0.0
220
0.0
230
1.0
 70
     8
 71
     3
 72
    11
 73
     7
 74
     5
 42
0.000000001
 43
0.0000000001
 44
0.00000001
 40
0.0
 40
0.0
 40
0.0
 40
0.0
 40
0.3303730501012444
 40
0.677163186182479
 40
0.6966301667961982
 40
0.716030074512392
 40
0.716030074512392
 40
0.716030074512392
 40
0.716030074512392
 10
471.3191244636087
 20
-64.5108306273079
 30
0.0
 10
471.294686612017
 20
-64.61841784433727
 30
0.0
 10
471.2445965041402
 20
-64.83893855486895
 30
0.0
 10
471.1503609856718
 20
-65.05268079388361
 30
0.0
 10
471.0929537113932
 20
-65.16768839039472
 30
0.0
 10
471.0873047346691
 20
-65.17934806920857
 30
0.0
 10
471.0844851141139
 20
-65.18516784488236
 30
0.0
 11
471.3191244636087
 21
-64.5108306273079
 31
0.0
 11
471.2359299898001
 21
-64.8305571228942
 31
0.0
 11
471.1016230000019
 21
-65.15028361848024
 31
0.0
 11
471.0929780002297
 21
-65.1677257316813
 31
0.0
 11
471.0844851141139
 21
-65.18516784488236
 31
0.0
  0
SPLINE
  5
146
330
5C
100
AcDbEntity
  8
0
  6
Continuous
 62
     2
100
AcDbSpline
210
0.0
220
0.0
230
1.0
 70
     8
 71
     3
 72
     9
 73
     5
 74
     3
 42
0.000000001
 43
0.0000000001
 44
0.00000001
 40
0.0
 40
0.0
 40
0.0
 40
0.0
 40
0.4011234271150038
 40
0.8042363040711914
 40
0.8042363040711914
 40
0.8042363040711914
 40
0.8042363040711914
 10
470.8822480667682
 20
-53.80028323696041
 30
0.0
 10
470.8656183786364
 20
-53.93378067027826
 30
0.0
 10
470.8322765440137
 20
-54.20143764396569
 30
0.0
 10
470.8788856849577
 20
-54.46711563608272
 30
0.0
 10
470.9022479141602
 20
-54.60028323696044
 30
0.0
 11
470.8822480667682
 21
-53.80028323696041
 31
0.0
 11
470.8522479904642
 21
-54.20028323696042
 31
0.0
 11
470.9022479141602
 21
-54.60028323696044
 31
0.0
  0
SPLINE
  5
147
330
5C
100
AcDbEntity
  8
0
  6
Continuous
 62
     2
100
AcDbSpline
210
0.0
220
0.0
230
1.0
 70
     8
 71
     3
 72
    17
 73
    13
 74
    11
 42
0.000000001
 43
0.0000000001
 44
0.00000001
 40
0.0
 40
0.0
 40
0.0
 40
0.0
 40
1.000730540829407
 40
2.007233036359342
 40
3.038009442691502
 40
4.068785848671505
 40
5.09956224517308
 40
6.130338657035571
 40
7.161115064500007
 40
8.191891469892813
 40
8.596654928096013
 40
8.980522072562335
 40
8.980522072562335
 40
8.980522072562335
 40
8.980522072562335
 10
471.1259978187801
 20
-55.20028323696041
 30
0.0
 10
471.2406055977322
 20
-55.52581427510228
 30
0.0
 10
471.4704821976981
 20
-56.17875392687783
 30
0.0
 10
471.0977365662865
 20
-57.15729889267121
 30
0.0
 10
470.7269079396948
 20
-58.15047842769476
 30
0.0
 10
471.1014358033004
 20
-59.15034696319114
 30
0.0
 10
471.4770869007751
 20
-60.14983541007796
 30
0.0
 10
471.0999546154335
 20
-61.15201308205383
 30
0.0
 10
470.7328326981906
 20
-62.14381395413265
 30
0.0
 10
471.0084851451766
 20
-62.96579371428895
 30
0.0
 10
471.2687918074421
 20
-63.51280663251769
 30
0.0
 10
471.3139951497495
 20
-63.77342624567654
 30
0.0
 10
471.335997952312
 20
-63.90028323696042
 30
0.0
 11
471.1259978187801
 21
-55.20028323696041
 31
0.0
 11
471.3514667523866
 21
-56.17528342772033
 31
0.0
 11
471.1016230000021
 21
-57.15028361848023
 31
0.0
 11
470.8516230000021
 21
-58.15028361848024
 31
0.0
 11
471.1016230000021
 21
-59.15028361848023
 31
0.0
 11
471.3516230000021
 21
-60.15028361848024
 31
0.0
 11
471.1016230000022
 21
-61.15028361848024
 31
0.0
 11
470.8516230000021
 21
-62.15028361848024
 31
0.0
 11
471.1016230000022
 21
-63.15028361848024
 31
0.0
 11
471.2539666903897
 21
-63.52528342772034
 31
0.0
 11
471.335997952312
 21
-63.90028323696042
 31
0.0
  0
SPLINE
  5
148
330
5C
100
AcDbEntity
  8
0
  6
Continuous
 62
     2
100
AcDbSpline
210
0.0
220
0.0
230
1.0
 70
     8
 71
     3
 72
    11
 73
     7
 74
     5
 42
0.000000001
 43
0.0000000001
 44
0.00000001
 40
0.0
 40
0.0
 40
0.0
 40
0.0
 40
0.286619464956243
 40
0.5861016818596787
 40
0.6139827924923998
 40
0.6417269686251291
 40
0.6417269686251291
 40
0.6417269686251291
 40
0.6417269686251291
 10
470.9022479141602
 20
-54.60028323696044
 30
0.0
 10
470.9267512383946
 20
-54.69276351777975
 30
0.0
 10
470.9768575542863
 20
-54.881874351802
 30
0.0
 10
471.0611988745306
 20
-55.06929015648169
 30
0.0
 10
471.114016503124
 20
-55.17520750266407
 30
0.0
 10
471.1220106023619
 20
-55.19193838991607
 30
0.0
 10
471.1259978187801
 20
-55.20028323696041
 30
0.0
 11
470.9022479141602
 21
-54.60028323696044
 31
0.0
 11
470.9830291808516
 21
-54.87528342772034
 31
0.0
 11
471.101623000002
 21
-55.15028361848024
 31
0.0
 11
471.1139666570065
 21
-55.17528342772033
 31
0.0
 11
471.1259978187801
 21
-55.20028323696041
 31
0.0
  0
SPLINE
  5
149
330
5C
100
AcDbEntity
  8
0
  6
Continuous
 62
     2
100
AcDbSpline
210
0.0
220
0.0
230
1.0
 70
     8
 71
     3
 72
     9
 73
     5
 74
     3
 42
0.000000001
 43
0.0000000001
 44
0.00000001
 40
0.0
 40
0.0
 40
0.0
 40
0.0
 40
0.072424939272026
 40
0.1450808671685707
 40
0.1450808671685707
 40
0.1450808671685707
 40
0.1450808671685707
 10
473.3488397855523
 20
-64.04477125996686
 30
0.0
 10
473.3473494898801
 20
-64.02067081341092
 30
0.0
 10
473.3443641255279
 20
-63.97239305708231
 30
0.0
 10
473.3387896418083
 20
-63.9243453425332
 30
0.0
 10
473.335997952312
 20
-63.90028323696051
 30
0.0
 11
473.3488397855523
 21
-64.04477125996686
 31
0.0
 11
473.3437236682317
 21
-63.97252724846369
 31
0.0
 11
473.335997952312
 21
-63.90028323696051
 31
0.0
  0
SPLINE
  5
14A
330
5C
100
AcDbEntity
  8
0
  6
Continuous
 62
     2
100
AcDbSpline
210
0.0
220
0.0
230
1.0
 70
     8
 71
     3
 72
    11
 73
     7
 74
     5
 42
0.000000001
 43
0.0000000001
 44
0.00000001
 40
0.0
 40
0.0
 40
0.0
 40
0.0
 40
0.1178057459937891
 40
0.2348546126782521
 40
0.351419510852948
 40
0.4679866568682582
 40
0.4679866568682582
 40
0.4679866568682582
 40
0.4679866568682582
 10
473.3191244636083
 20
-64.51083062730852
 30
0.0
 10
473.325472196913
 20
-64.4720661926171
 30
0.0
 10
473.3381268657515
 20
-64.39478637511337
 30
0.0
 10
473.3485195548691
 20
-64.27802463912431
 30
0.0
 10
473.3530475263403
 20
-64.16129888886984
 30
0.0
 10
473.3502423798232
 20
-64.08361405251382
 30
0.0
 10
473.3488397855523
 20
-64.04477125996686
 30
0.0
 11
473.3191244636083
 21
-64.51083062730852
 31
0.0
 11
473.3367311424547
 21
-64.39434801610832
 31
0.0
 11
473.3475578329483
 21
-64.27780094363769
 31
0.0
 11
473.3515926273501
 21
-64.16130589628106
 31
0.0
 11
473.3488397855523
 21
-64.04477125996686
 31
0.0
  0
SPLINE
  5
14B
330
5C
100
AcDbEntity
  8
0
  6
Continuous
 62
     2
100
AcDbSpline
210
0.0
220
0.0
230
1.0
 70
     8
 71
     3
 72
     9
 73
     5
 74
     3
 42
0.000000001
 43
0.0000000001
 44
0.00000001
 40
0.0
 40
0.0
 40
0.0
 40
0.0
 40
0.0551955964594989
 40
0.1109200932963479
 40
0.1109200932963479
 40
0.1109200932963479
 40
0.1109200932963479
 10
473.0383549453695
 20
-65.2860337810666
 30
0.0
 10
473.0457445333895
 20
-65.26918309221928
 30
0.0
 10
473.060594536858
 20
-65.23532025450774
 30
0.0
 10
473.0764963074758
 20
-65.20193837022994
 30
0.0
 10
473.0844851141138
 20
-65.18516784488246
 30
0.0
 11
473.0383549453695
 21
-65.2860337810666
 31
0.0
 11
473.0607841586739
 21
-65.23560081297454
 31
0.0
 11
473.0844851141138
 21
-65.18516784488246
 31
0.0
  0
SPLINE
  5
14C
330
5C
100
AcDbEntity
  8
0
  6
Continuous
 62
     2
100
AcDbSpline
210
0.0
220
0.0
230
1.0
 70
     8
 71
     3
 72
    17
 73
    13
 74
    11
 42
0.000000001
 43
0.0000000001
 44
0.00000001
 40
0.0
 40
0.0
 40
0.0
 40
0.0
 40
0.3838671444663833
 40
0.7886306026696228
 40
1.819407008062422
 40
2.850183415526844
 40
3.880959827389363
 40
4.911736223890938
 40
5.942512629870934
 40
6.97328903620308
 40
7.97979153173298
 40
8.980522072562307
 40
8.980522072562307
 40
8.980522072562307
 40
8.980522072562307
 10
473.335997952312
 20
-63.90028323696051
 30
0.0
 10
473.3139951497495
 20
-63.77342624567662
 30
0.0
 10
473.2687918074423
 20
-63.51280663251777
 30
0.0
 10
473.0084851451763
 20
-62.96579371428894
 30
0.0
 10
472.7328326981907
 20
-62.14381395413265
 30
0.0
 10
473.0999546154335
 20
-61.15201308205381
 30
0.0
 10
473.4770869007752
 20
-60.14983541007796
 30
0.0
 10
473.1014358033003
 20
-59.15034696319116
 30
0.0
 10
472.7269079396949
 20
-58.15047842769477
 30
0.0
 10
473.0977365662864
 20
-57.15729889267119
 30
0.0
 10
473.4704821976983
 20
-56.17875392687793
 30
0.0
 10
473.2406055977323
 20
-55.52581427510236
 30
0.0
 10
473.1259978187803
 20
-55.2002832369605
 30
0.0
 11
473.335997952312
 21
-63.90028323696051
 31
0.0
 11
473.2539666903896
 21
-63.52528342772038
 31
0.0
 11
473.1016230000021
 21
-63.15028361848024
 31
0.0
 11
472.8516230000021
 21
-62.15028361848024
 31
0.0
 11
473.1016230000021
 21
-61.15028361848024
 31
0.0
 11
473.3516230000022
 21
-60.15028361848023
 31
0.0
 11
473.1016230000021
 21
-59.15028361848024
 31
0.0
 11
472.8516230000022
 21
-58.15028361848024
 31
0.0
 11
473.1016230000021
 21
-57.15028361848023
 31
0.0
 11
473.3514667523867
 21
-56.17528342772038
 31
0.0
 11
473.1259978187803
 21
-55.2002832369605
 31
0.0
  0
ENDBLK
  5
5E
330
5C
100
AcDbEntity
  8
0
100
AcDbBlockEnd
  0
BLOCK
  5
61
330
5F
100
AcDbEntity
  8
0
100
AcDbBlockBegin
  2
Right1
 70
     0
 10
939.2500000000011
 20
-61.15028361848024
 30
0.0
  3
Right1
  1

  0
INSERT
  5
60
330
5F
100
AcDbEntity
  8
0
100
AcDbBlockReference
  2
EB_56_18-select__4
 10
435.7500000000021
 20
-68.5002832369604
 30
0.0
  0
ENDBLK
  5
62
330
5F
100
AcDbEntity
  8
0
100
AcDbBlockEnd
  0
BLOCK
  5
64
330
63
100
AcDbEntity
  8
0
100
AcDbBlockBegin
  2
EB_56_18-select__5
 70
     0
 10
563.7521499960698
 20
-208.9999999999982
 30
0.0
  3
EB_56_18-select__5
  1

  0
LINE
  5
14D
330
63
100
AcDbEntity
  8
0
  6
Continuous
 62
     7
100
AcDbLine
 10
580.2521499960698
 20
-147.4999999999982
 30
0.0
 11
569.0008266018749
 21
-147.4999999999982
 31
0.0
  0
LINE
  5
14E
330
63
100
AcDbEntity
  8
0
  6
Continuous
 62
     7
100
AcDbLine
 10
569.0008266018749
 20
-160.2999999999981
 30
0.0
 11
580.2521499960698
 21
-160.2999999999981
 31
0.0
  0
LINE
  5
14F
330
63
100
AcDbEntity
  8
0
  6
Continuous
 62
     7
100
AcDbLine
 10
580.2521499960698
 20
-165.2999999999981
 30
0.0
 11
580.2521499960698
 21
-160.2999999999981
 31
0.0
  0
LINE
  5
150
330
63
100
AcDbEntity
  8
0
  6
Continuous
 62
     7
100
AcDbLine
 10
580.2521499960698
 20
-165.2999999999981
 30
0.0
 11
569.0008266018749
 21
-165.2999999999981
 31
0.0
  0
LINE
  5
151
330
63
100
AcDbEntity
  8
0
  6
Continuous
 62
     7
100
AcDbLine
 10
569.0008266018749
 20
-142.4999999999982
 30
0.0
 11
580.2521499960698
 21
-142.4999999999982
 31
0.0
  0
LINE
  5
152
330
63
100
AcDbEntity
  8
0
  6
Continuous
 62
     7
100
AcDbLine
 10
580.2521499960699
 20
-179.6999999999982
 30
0.0
 11
569.000826601875
 21
-179.6999999999982
 31
0.0
  0
LINE
  5
153
330
63
100
AcDbEntity
  8
0
  6
Continuous
 62
     7
100
AcDbLine
 10
569.000826601875
 20
-192.4999999999982
 30
0.0
 11
580.2521499960699
 21
-192.4999999999982
 31
0.0
  0
LINE
  5
154
330
63
100
AcDbEntity
  8
0
  6
Continuous
 62
     7
100
AcDbLine
 10
569.0008266018749
 20
-130.9999999999982
 30
0.0
 11
563.7521499960698
 21
-130.9999999999982
 31
0.0
  0
LINE
  5
155
330
63
100
AcDbEntity
  8
0
  6
Continuous
 62
     7
100
AcDbLine
 10
563.7521499960699
 20
-208.9999999999982
 30
0.0
 11
563.7521499960699
 21
-170.1833426123772
 31
0.0
  0
LINE
  5
156
330
63
100
AcDbEntity
  8
0
  6
Continuous
 62
     7
100
AcDbLine
 10
569.000826601875
 20
-208.9999999999982
 30
0.0
 11
563.7521499960699
 21
-208.9999999999982
 31
0.0
  0
LINE
  5
157
330
63
100
AcDbEntity
  8
0
  6
Continuous
 62
     7
100
AcDbLine
 10
563.7521499960698
 20
-168.1833426123772
 30
0.0
 11
563.7521499960698
 21
-130.9999999999982
 31
0.0
  0
LINE
  5
158
330
63
100
AcDbEntity
  8
0
  6
Continuous
 62
     7
100
AcDbLine
 10
580.2521499960699
 20
-179.6999999999982
 30
0.0
 11
580.2521499960699
 21
-174.6999999999982
 31
0.0
  0
LINE
  5
159
330
63
100
AcDbEntity
  8
0
  6
Continuous
 62
     7
100
AcDbLine
 10
580.2521499960699
 20
-197.4999999999982
 30
0.0
 11
580.2521499960699
 21
-192.4999999999982
 31
0.0
  0
LINE
  5
15A
330
63
100
AcDbEntity
  8
0
  6
Continuous
 62
     7
100
AcDbLine
 10
580.2521499960698
 20
-147.4999999999982
 30
0.0
 11
580.2521499960698
 21
-142.4999999999982
 31
0.0
  0
LINE
  5
15B
330
63
100
AcDbEntity
  8
0
  6
Continuous
 62
     7
100
AcDbLine
 10
569.000826601875
 20
-208.9999999999982
 30
0.0
 11
569.000826601875
 21
-170.5499995621531
 31
0.0
  0
LINE
  5
15C
330
63
100
AcDbEntity
  8
0
  6
Continuous
 62
     7
100
AcDbLine
 10
569.0008266018749
 20
-168.5499995621531
 30
0.0
 11
569.0008266018749
 21
-130.9999999999982
 31
0.0
  0
LINE
  5
15D
330
63
100
AcDbEntity
  8
0
  6
Continuous
 62
     7
100
AcDbLine
 10
569.000826601875
 20
-174.6999999999982
 30
0.0
 11
580.2521499960699
 21
-174.6999999999982
 31
0.0
  0
LINE
  5
15E
330
63
100
AcDbEntity
  8
0
  6
Continuous
 62
     7
100
AcDbLine
 10
580.2521499960699
 20
-197.4999999999982
 30
0.0
 11
569.000826601875
 21
-197.4999999999982
 31
0.0
  0
SPLINE
  5
15F
330
63
100
AcDbEntity
  8
0
  6
Continuous
 62
     2
100
AcDbSpline
210
0.0
220
0.0
230
1.0
 70
     8
 71
     3
 72
     9
 73
     5
 74
     3
 42
0.000000001
 43
0.0000000001
 44
0.00000001
 40
0.0
 40
0.0
 40
0.0
 40
0.0
 40
0.0553380931581816
 40
0.1109598147569551
 40
0.1109598147569551
 40
0.1109598147569551
 40
0.1109598147569551
 10
567.3375964529577
 20
-170.0781310810282
 30
0.0
 10
567.3557695656613
 20
-170.0813039262922
 30
0.0
 10
567.3922089313771
 20
-170.0876658984924
 30
0.0
 10
567.4283699391306
 20
-170.0954559810351
 30
0.0
 10
567.4464966572625
 20
-170.0993609883901
 30
0.0
 11
567.3375964529577
 21
-170.0781310810282
 31
0.0
 11
567.39204655511
 21
-170.0880048313031
 31
0.0
 11
567.4464966572625
 21
-170.0993609883901
 31
0.0
  0
SPLINE
  5
160
330
63
100
AcDbEntity
  8
0
  6
Continuous
 62
     2
100
AcDbSpline
210
0.0
220
0.0
230
1.0
 70
     8
 71
     3
 72
    11
 73
     7
 74
     5
 42
0.000000001
 43
0.0000000001
 44
0.00000001
 40
0.0
 40
0.0
 40
0.0
 40
0.0
 40
0.1098221588594252
 40
0.2196947200336128
 40
0.3299133909013817
 40
0.4407801248682037
 40
0.4407801248682037
 40
0.4407801248682037
 40
0.4407801248682037
 10
566.8983744680868
 20
-170.0526923401521
 30
0.0
 10
566.9349682453379
 20
-170.0513674370945
 30
0.0
 10
567.0081725946743
 20
-170.0487170379034
 30
0.0
 10
567.1181511682646
 20
-170.0524976843859
 30
0.0
 10
567.2281742678799
 20
-170.0614840011581
 30
0.0
 10
567.3010511844051
 20
-170.0725712162059
 30
0.0
 10
567.3375964529577
 20
-170.0781310810282
 30
0.0
 11
566.8983744680868
 21
-170.0526923401521
 31
0.0
 11
567.0081638416431
 21
-170.0500090415768
 31
0.0
 11
567.1179854605223
 21
-170.05335446359
 31
0.0
 11
567.2278046516496
 21
-170.0627300056722
 31
0.0
 11
567.3375964529577
 21
-170.0781310810282
 31
0.0
  0
SPLINE
  5
161
330
63
100
AcDbEntity
  8
0
  6
Continuous
 62
     2
100
AcDbSpline
210
0.0
220
0.0
230
1.0
 70
     8
 71
     3
 72
    11
 73
     7
 74
     5
 42
0.000000001
 43
0.0000000001
 44
0.00000001
 40
0.0
 40
0.0
 40
0.0
 40
0.0
 40
0.0036280747128053
 40
0.0072561494274516
 40
0.0180123988677228
 40
0.0288313436617249
 40
0.0288313436617249
 40
0.0288313436617249
 40
0.0288313436617249
 10
566.1403811086409
 20
-170.2356614046801
 30
0.0
 10
566.141491943955
 20
-170.2351832906686
 30
0.0
 10
566.1437136203218
 20
-170.2342270759901
 30
0.0
 10
566.1492328994661
 20
-170.2318633552936
 30
0.0
 10
566.156963506623
 20
-170.2285744788277
 30
0.0
 10
566.1635964286922
 20
-170.2257950006878
 30
0.0
 10
566.1669225302186
 20
-170.2244012307472
 30
0.0
 11
566.1403811086409
 21
-170.2356614046801
 31
0.0
 11
566.1437140465581
 21
-170.2342280690158
 31
0.0
 11
566.1470490000166
 21
-170.232799429202
 31
0.0
 11
566.1569480390687
 21
-170.228591587858
 31
0.0
 11
566.1669225302186
 21
-170.2244012307472
 31
0.0
  0
SPLINE
  5
162
330
63
100
AcDbEntity
  8
0
  6
Continuous
 62
     2
100
AcDbSpline
210
0.0
220
0.0
230
1.0
 70
     8
 71
     3
 72
     9
 73
     5
 74
     3
 42
0.000000001
 43
0.0000000001
 44
0.00000001
 40
0.0
 40
0.0
 40
0.0
 40
0.0
 40
0.3846899778035827
 40
0.7541529341799551
 40
0.7541529341799551
 40
0.7541529341799551
 40
0.7541529341799551
 10
566.1669225302186
 20
-170.2244012307472
 30
0.0
 10
566.2875497410184
 20
-170.1791347758728
 30
0.0
 10
566.5240294318291
 20
-170.0903936483022
 30
0.0
 10
566.7752838048937
 20
-170.0650891295392
 30
0.0
 10
566.8983744680868
 20
-170.0526923401521
 30
0.0
 11
566.1669225302186
 21
-170.2244012307472
 31
0.0
 11
566.5326484991526
 21
-170.1051079143614
 31
0.0
 11
566.8983744680868
 21
-170.0526923401521
 31
0.0
  0
SPLINE
  5
163
330
63
100
AcDbEntity
  8
0
  6
Continuous
 62
     2
100
AcDbSpline
210
0.0
220
0.0
230
1.0
 70
     8
 71
     3
 72
    11
 73
     7
 74
     5
 42
0.000000001
 43
0.0000000001
 44
0.00000001
 40
0.0
 40
0.0
 40
0.0
 40
0.0
 40
0.2893999291740547
 40
0.5918825666052264
 40
0.6018358863616896
 40
0.6117715793148448
 40
0.6117715793148448
 40
0.6117715793148448
 40
0.6117715793148448
 10
567.4464966572625
 20
-170.0993609883901
 30
0.0
 10
567.5399139588492
 20
-170.1239259303063
 30
0.0
 10
567.7309716020878
 20
-170.1741663375921
 30
0.0
 10
567.9149271548176
 20
-170.2564180336667
 30
0.0
 10
568.0110506322685
 20
-170.3044417187466
 30
0.0
 10
568.0169992292376
 20
-170.3073687995083
 30
0.0
 10
568.019970888562
 20
-170.3088310492271
 30
0.0
 11
567.4464966572625
 21
-170.0993609883901
 31
0.0
 11
567.7243233276488
 21
-170.1803835794994
 31
0.0
 11
568.0021499980351
 21
-170.2999999999973
 31
0.0
 11
568.0110604432986
 21
-170.3044353736206
 31
0.0
 11
568.019970888562
 21
-170.3088310492271
 31
0.0
  0
SPLINE
  5
164
330
63
100
AcDbEntity
  8
0
  6
Continuous
 62
     2
100
AcDbSpline
210
0.0
220
0.0
230
1.0
 70
     8
 71
     3
 72
     9
 73
     5
 74
     3
 42
0.000000001
 43
0.0000000001
 44
0.00000001
 40
0.0
 40
0.0
 40
0.0
 40
0.0
 40
0.522663445364256
 40
1.016803318490391
 40
1.016803318490391
 40
1.016803318490391
 40
1.016803318490391
 10
568.019970888562
 20
-170.3088310492271
 30
0.0
 10
568.1810215538309
 20
-170.3790729039296
 30
0.0
 10
568.4943337919881
 20
-170.5157232507117
 30
0.0
 10
568.8351828530393
 20
-170.5387898206788
 30
0.0
 10
569.000826601875
 20
-170.5499995621531
 30
0.0
 11
568.019970888562
 21
-170.3088310492271
 31
0.0
 11
568.5103987452186
 21
-170.4895451763362
 31
0.0
 11
569.000826601875
 21
-170.5499995621531
 31
0.0
  0
SPLINE
  5
165
330
63
100
AcDbEntity
  8
0
  6
Continuous
 62
     2
100
AcDbSpline
210
0.0
220
0.0
230
1.0
 70
     8
 71
     3
 72
    11
 73
     7
 74
     5
 42
0.000000001
 43
0.0000000001
 44
0.00000001
 40
0.0
 40
0.0
 40
0.0
 40
0.0
 40
0.0144870068074866
 40
0.0289740136198591
 40
0.0700653444909194
 40
0.1109616462446505
 40
0.1109616462446505
 40
0.1109616462446505
 40
0.1109616462446505
 10
567.4464966572624
 20
-168.0993609883901
 30
0.0
 10
567.441780572188
 20
-168.0983226821851
 30
0.0
 10
567.4323483989349
 20
-168.0962460839772
 30
0.0
 10
567.4094965902815
 20
-168.0914233715026
 30
0.0
 10
567.3779561439032
 20
-168.0851332315008
 30
0.0
 10
567.3510283326187
 20
-168.0804614214683
 30
0.0
 10
567.3375964529577
 20
-168.0781310810282
 30
0.0
 11
567.4464966572624
 21
-168.0993609883901
 31
0.0
 11
567.4323439760062
 21
-168.0962666415298
 31
0.0
 11
567.4181706458938
 21
-168.0932682948592
 31
0.0
 11
567.3778613373835
 21
-168.0852897526264
 31
0.0
 11
567.3375964529577
 21
-168.0781310810282
 31
0.0
  0
SPLINE
  5
166
330
63
100
AcDbEntity
  8
0
  6
Continuous
 62
     2
100
AcDbSpline
210
0.0
220
0.0
230
1.0
 70
     8
 71
     3
 72
     9
 73
     5
 74
     3
 42
0.000000001
 43
0.0000000001
 44
0.00000001
 40
0.0
 40
0.0
 40
0.0
 40
0.0
 40
0.2210042273998432
 40
0.440616217432277
 40
0.440616217432277
 40
0.440616217432277
 40
0.440616217432277
 10
567.3375964529577
 20
-168.0781310810282
 30
0.0
 10
567.2645091748384
 20
-168.0678566686603
 30
0.0
 10
567.1187950372408
 20
-168.0473725884485
 30
0.0
 10
566.9716930561458
 20
-168.0509228222434
 30
0.0
 10
566.8983744680867
 20
-168.0526923401521
 30
0.0
 11
567.3375964529577
 21
-168.0781310810282
 31
0.0
 11
567.1179854605223
 21
-168.0533544635907
 31
0.0
 11
566.8983744680867
 21
-168.0526923401521
 31
0.0
  0
SPLINE
  5
167
330
63
100
AcDbEntity
  8
0
  6
Continuous
 62
     2
100
AcDbSpline
210
0.0
220
0.0
230
1.0
 70
     8
 71
     3
 72
     9
 73
     5
 74
     3
 42
0.000000001
 43
0.0000000001
 44
0.00000001
 40
0.0
 40
0.0
 40
0.0
 40
0.0
 40
0.3694629563763725
 40
0.7541529341799551
 40
0.7541529341799551
 40
0.7541529341799551
 40
0.7541529341799551
 10
566.8983744680867
 20
-168.0526923401521
 30
0.0
 10
566.7752838048935
 20
-168.0650891295392
 30
0.0
 10
566.5240294318288
 20
-168.0903936483022
 30
0.0
 10
566.2875497410184
 20
-168.1791347758728
 30
0.0
 10
566.1669225302185
 20
-168.2244012307472
 30
0.0
 11
566.8983744680867
 21
-168.0526923401521
 31
0.0
 11
566.5326484991525
 21
-168.1051079143614
 31
0.0
 11
566.1669225302185
 21
-168.2244012307472
 31
0.0
  0
SPLINE
  5
168
330
63
100
AcDbEntity
  8
0
  6
Continuous
 62
     2
100
AcDbSpline
210
0.0
220
0.0
230
1.0
 70
     8
 71
     3
 72
     9
 73
     5
 74
     3
 42
0.000000001
 43
0.0000000001
 44
0.00000001
 40
0.0
 40
0.0
 40
0.0
 40
0.0
 40
0.0486326576632864
 40
0.0968638422796148
 40
0.0968638422796148
 40
0.0968638422796148
 40
0.0968638422796148
 10
566.0521499960698
 20
-170.2756250009311
 30
0.0
 10
566.0668244534007
 20
-170.2687343718256
 30
0.0
 10
566.0960522355947
 20
-170.2550100154197
 30
0.0
 10
566.1256457004097
 20
-170.2420930898738
 30
0.0
 10
566.1403811086409
 20
-170.2356614046801
 30
0.0
 11
566.0521499960698
 21
-170.2756250009311
 31
0.0
 11
566.0962655523554
 21
-170.2551566572288
 31
0.0
 11
566.1403811086409
 21
-170.2356614046801
 31
0.0
  0
SPLINE
  5
169
330
63
100
AcDbEntity
  8
0
  6
Continuous
 62
     2
100
AcDbSpline
210
0.0
220
0.0
230
1.0
 70
     8
 71
     3
 72
     9
 73
     5
 74
     3
 42
0.000000001
 43
0.0000000001
 44
0.00000001
 40
0.0
 40
0.0
 40
0.0
 40
0.0
 40
0.0647804422980774
 40
0.1301771317001326
 40
0.1301771317001326
 40
0.1301771317001326
 40
0.1301771317001326
 10
565.6290730729927
 20
-170.4517418645191
 30
0.0
 10
565.649633988882
 20
-170.4451360505288
 30
0.0
 10
565.690951407343
 20
-170.4318615634287
 30
0.0
 10
565.731686190422
 20
-170.4168941460957
 30
0.0
 10
565.7521499960696
 20
-170.4093750007332
 30
0.0
 11
565.6290730729927
 21
-170.4517418645191
 31
0.0
 11
565.6906115345312
 21
-170.4315051781887
 31
0.0
 11
565.7521499960696
 21
-170.4093750007332
 31
0.0
  0
SPLINE
  5
16A
330
63
100
AcDbEntity
  8
0
  6
Continuous
 62
     2
100
AcDbSpline
210
0.0
220
0.0
230
1.0
 70
     8
 71
     3
 72
    11
 73
     7
 74
     5
 42
0.000000001
 43
0.0000000001
 44
0.00000001
 40
0.0
 40
0.0
 40
0.0
 40
0.0
 40
0.1349212197600189
 40
0.2729727599385113
 40
0.3008540816768171
 40
0.3285984670327666
 40
0.3285984670327666
 40
0.3285984670327666
 40
0.3285984670327666
 10
565.7521499960696
 20
-170.4093750007332
 30
0.0
 10
565.7940258203971
 20
-170.3929375222085
 30
0.0
 10
565.8787490272528
 20
-170.3596811811183
 30
0.0
 10
565.9692950397855
 20
-170.3164016216659
 30
0.0
 10
566.0270751250929
 20
-170.2876075075128
 30
0.0
 10
566.0438054364224
 20
-170.2796126136557
 30
0.0
 10
566.0521499960698
 20
-170.2756250009311
 30
0.0
 11
565.7521499960696
 21
-170.4093750007332
 31
0.0
 11
565.8771499970524
 21
-170.3585937504273
 31
0.0
 11
566.0021499980351
 21
-170.2999999999979
 31
0.0
 11
566.0271499970524
 21
-170.2876562504768
 31
0.0
 11
566.0521499960698
 21
-170.2756250009311
 31
0.0
  0
SPLINE
  5
16B
330
63
100
AcDbEntity
  8
0
  6
Continuous
 62
     2
100
AcDbSpline
210
0.0
220
0.0
230
1.0
 70
     8
 71
     3
 72
     9
 73
     5
 74
     3
 42
0.000000001
 43
0.0000000001
 44
0.00000001
 40
0.0
 40
0.0
 40
0.0
 40
0.0
 40
0.5406565115119635
 40
1.08766186682511
 40
1.08766186682511
 40
1.08766186682511
 40
1.08766186682511
 10
564.5521499960697
 20
-170.499374999556
 30
0.0
 10
564.7321549417181
 20
-170.5275156288131
 30
0.0
 10
565.0942786030688
 20
-170.5841273185945
 30
0.0
 10
565.4501158920453
 20
-170.4960417452956
 30
0.0
 10
565.6290730729927
 20
-170.4517418645191
 30
0.0
 11
564.5521499960697
 21
-170.499374999556
 31
0.0
 11
565.0906115345304
 21
-170.5480436391383
 31
0.0
 11
565.6290730729927
 21
-170.4517418645191
 31
0.0
  0
SPLINE
  5
16C
330
63
100
AcDbEntity
  8
0
  6
Continuous
 62
     2
100
AcDbSpline
210
0.0
220
0.0
230
1.0
 70
     8
 71
     3
 72
    11
 73
     7
 74
     5
 42
0.000000001
 43
0.0000000001
 44
0.00000001
 40
0.0
 40
0.0
 40
0.0
 40
0.0
 40
0.009935692952451
 40
0.0198890127086862
 40
0.3223716501402177
 40
0.6117715793143519
 40
0.6117715793143519
 40
0.6117715793143519
 40
0.6117715793143519
 10
568.0199708885619
 20
-168.3088310492262
 30
0.0
 10
568.0169992292375
 20
-168.307368799508
 30
0.0
 10
568.0110506322683
 20
-168.3044417187475
 30
0.0
 10
567.9149271548134
 20
-168.2564180336692
 30
0.0
 10
567.73097160209
 20
-168.1741663375917
 30
0.0
 10
567.5399139588488
 20
-168.123925930306
 30
0.0
 10
567.4464966572624
 20
-168.0993609883901
 30
0.0
 11
568.0199708885619
 21
-168.3088310492262
 31
0.0
 11
568.0110604432984
 21
-168.3044353736213
 31
0.0
 11
568.002149998035
 21
-168.2999999999985
 31
0.0
 11
567.7243233276487
 21
-168.1803835794997
 31
0.0
 11
567.4464966572624
 21
-168.0993609883901
 31
0.0
  0
SPLINE
  5
16D
330
63
100
AcDbEntity
  8
0
  6
Continuous
 62
     2
100
AcDbSpline
210
0.0
220
0.0
230
1.0
 70
     8
 71
     3
 72
    11
 73
     7
 74
     5
 42
0.000000001
 43
0.0000000001
 44
0.00000001
 40
0.0
 40
0.0
 40
0.0
 40
0.0
 40
0.0173176270991243
 40
0.0346352542034306
 40
0.0825563261165372
 40
0.1301795152137829
 40
0.1301795152137829
 40
0.1301795152137829
 40
0.1301795152137829
 10
565.7521499960695
 20
-168.4093750007332
 30
0.0
 10
565.7467408882402
 20
-168.4113909965805
 30
0.0
 10
565.7359226675243
 20
-168.4154229746389
 30
0.0
 10
565.710048890093
 20
-168.424794971575
 30
0.0
 10
565.6745270987249
 20
-168.4371979566679
 30
0.0
 10
565.6441928918009
 20
-168.446903987357
 30
0.0
 10
565.6290730729926
 20
-168.4517418645191
 30
0.0
 11
565.7521499960695
 21
-168.4093750007332
 31
0.0
 11
565.735913488382
 21
-168.4153979593201
 31
0.0
 11
565.7196341340887
 21
-168.4213041286262
 31
0.0
 11
565.6743672090479
 21
-168.4370310053023
 31
0.0
 11
565.6290730729926
 21
-168.4517418645191
 31
0.0
  0
SPLINE
  5
16E
330
63
100
AcDbEntity
  8
0
  6
Continuous
 62
     2
100
AcDbSpline
210
0.0
220
0.0
230
1.0
 70
     8
 71
     3
 72
    19
 73
    15
 74
    13
 42
0.000000001
 43
0.0000000001
 44
0.00000001
 40
0.0
 40
0.0
 40
0.0
 40
0.0
 40
0.0091317903006734
 40
0.0182635806576425
 40
0.0454968420507546
 40
0.0726776619836021
 40
0.1792309702854071
 40
0.2850952885909398
 40
0.4713406668356646
 40
0.6577001983886075
 40
0.8457731762019117
 40
1.037113020029824
 40
1.063785784359681
 40
1.09052761737796
 40
1.09052761737796
 40
1.09052761737796
 40
1.09052761737796
 10
564.5521499960696
 20
-168.499374999556
 30
0.0
 10
564.5551205072582
 20
-168.5000395356336
 30
0.0
 10
564.561061532798
 20
-168.5013685936797
 30
0.0
 10
564.5758788879886
 20
-168.5046001651553
 30
0.0
 10
564.5966113255084
 20
-168.5089443707878
 30
0.0
 10
564.649264950477
 20
-168.5192688845508
 30
0.0
 10
564.7281269381497
 20
-168.5321514558664
 30
0.0
 10
564.8602568401939
 20
-168.5467777795237
 30
0.0
 10
565.0198808553416
 20
-168.5528261475485
 30
0.0
 10
565.2067504269453
 20
-168.5424315902274
 30
0.0
 10
565.3935379603283
 20
-168.5146155592271
 30
0.0
 10
565.5252723454939
 20
-168.4826409309433
 30
0.0
 10
565.6035501696233
 20
-168.4596476403651
 30
0.0
 10
565.6205581091377
 20
-168.4543793984472
 30
0.0
 10
565.6290730729926
 20
-168.4517418645191
 30
0.0
 11
564.5521499960696
 21
-168.499374999556
 31
0.0
 11
564.5610632895924
 21
-168.5013606475719
 31
0.0
 11
564.5699849531225
 21
-168.5033083434871
 31
0.0
 11
564.5966399920454
 21
-168.5088904087586
 31
0.0
 11
564.6233128625868
 21
-168.5141206061992
 31
0.0
 11
564.7284761263561
 21
-168.5312756529879
 31
0.0
 11
564.8336996325099
 21
-168.5429061185871
 31
0.0
 11
565.0198128199082
 21
-168.5499220061798
 31
0.0
 11
565.2058875377638
 21
-168.539622753726
 31
0.0
 11
565.3919237801165
 21
-168.5120190996995
 31
0.0
 11
565.5779215410059
 21
-168.4671217825742
 31
0.0
 11
565.6035093272723
 21
-168.4595917392828
 31
0.0
 11
565.6290730729926
 21
-168.4517418645191
 31
0.0
  0
SPLINE
  5
16F
330
63
100
AcDbEntity
  8
0
  6
Continuous
 62
     2
100
AcDbSpline
210
0.0
220
0.0
230
1.0
 70
     8
 71
     3
 72
     9
 73
     5
 74
     3
 42
0.000000001
 43
0.0000000001
 44
0.00000001
 40
0.0
 40
0.0
 40
0.0
 40
0.0
 40
0.0143984658719931
 40
0.0288313222771923
 40
0.0288313222771923
 40
0.0288313222771923
 40
0.0288313222771923
 10
566.1669225302185
 20
-168.2244012307472
 30
0.0
 10
566.1624963279925
 20
-168.226257046525
 30
0.0
 10
566.1536333594037
 20
-168.2299731290928
 30
0.0
 10
566.1448020343355
 20
-168.233763799483
 30
0.0
 10
566.1403811086408
 20
-168.2356614046801
 30
0.0
 11
566.1669225302185
 21
-168.2244012307472
 31
0.0
 11
566.1536518194296
 21
-168.2299872897724
 31
0.0
 11
566.1403811086408
 21
-168.2356614046801
 31
0.0
  0
SPLINE
  5
170
330
63
100
AcDbEntity
  8
0
  6
Continuous
 62
     2
100
AcDbSpline
210
0.0
220
0.0
230
1.0
 70
     8
 71
     3
 72
     9
 73
     5
 74
     3
 42
0.000000001
 43
0.0000000001
 44
0.00000001
 40
0.0
 40
0.0
 40
0.0
 40
0.0
 40
0.0482311846163284
 40
0.0968638422796148
 40
0.0968638422796148
 40
0.0968638422796148
 40
0.0968638422796148
 10
566.1403811086408
 20
-168.2356614046801
 30
0.0
 10
566.1256457004096
 20
-168.2420930898738
 30
0.0
 10
566.0960522355947
 20
-168.2550100154197
 30
0.0
 10
566.0668244534005
 20
-168.2687343718256
 30
0.0
 10
566.0521499960697
 20
-168.2756250009311
 30
0.0
 11
566.1403811086408
 21
-168.2356614046801
 31
0.0
 11
566.0962655523552
 21
-168.2551566572288
 31
0.0
 11
566.0521499960697
 21
-168.2756250009311
 31
0.0
  0
SPLINE
  5
171
330
63
100
AcDbEntity
  8
0
  6
Continuous
 62
     2
100
AcDbSpline
210
0.0
220
0.0
230
1.0
 70
     8
 71
     3
 72
    11
 73
     7
 74
     5
 42
0.000000001
 43
0.0000000001
 44
0.00000001
 40
0.0
 40
0.0
 40
0.0
 40
0.0
 40
0.0277443853559371
 40
0.0556257070942051
 40
0.1936772472719352
 40
0.3285984670327572
 40
0.3285984670327572
 40
0.3285984670327572
 40
0.3285984670327572
 10
566.0521499960697
 20
-168.2756250009311
 30
0.0
 10
566.0438054364221
 20
-168.2796126136557
 30
0.0
 10
566.0270751250929
 20
-168.2876075075127
 30
0.0
 10
565.9692950397858
 20
-168.3164016216657
 30
0.0
 10
565.8787490272528
 20
-168.359681181118
 30
0.0
 10
565.7940258203971
 20
-168.3929375222082
 30
0.0
 10
565.7521499960695
 20
-168.4093750007332
 30
0.0
 11
566.0521499960697
 21
-168.2756250009311
 31
0.0
 11
566.0271499970523
 21
-168.2876562504768
 31
0.0
 11
566.002149998035
 21
-168.2999999999978
 31
0.0
 11
565.8771499970529
 21
-168.3585937504268
 31
0.0
 11
565.7521499960695
 21
-168.4093750007332
 31
0.0
  0
SPLINE
  5
172
330
63
100
AcDbEntity
  8
0
  6
Continuous
 62
     2
100
AcDbSpline
210
0.0
220
0.0
230
1.0
 70
     8
 71
     3
 72
    11
 73
     7
 74
     5
 42
0.000000001
 43
0.0000000001
 44
0.00000001
 40
0.0
 40
0.0
 40
0.0
 40
0.0
 40
0.1347404941786942
 40
0.2759061681166424
 40
0.5753881816718365
 40
0.8620074575615113
 40
0.8620074575615113
 40
0.8620074575615113
 40
0.8620074575615113
 10
563.7521499960699
 20
-170.1833426123772
 30
0.0
 10
563.7932739367417
 20
-170.2014273266803
 30
0.0
 10
563.8774828434264
 20
-170.238459122071
 30
0.0
 10
564.0490958958349
 20
-170.3239598216895
 30
0.0
 10
564.2703967807154
 20
-170.4250406605552
 30
0.0
 10
564.4596164783544
 20
-170.4749620879257
 30
0.0
 10
564.5521499960697
 20
-170.499374999556
 30
0.0
 11
563.7521499960699
 21
-170.1833426123772
 31
0.0
 11
563.875064343712
 21
-170.2385428261769
 31
0.0
 11
564.0021499980351
 21
-170.2999999999981
 31
0.0
 11
564.2771499970514
 21
-170.4185937496416
 31
0.0
 11
564.5521499960697
 21
-170.499374999556
 31
0.0
  0
SPLINE
  5
173
330
63
100
AcDbEntity
  8
0
  6
Continuous
 62
     2
100
AcDbSpline
210
0.0
220
0.0
230
1.0
 70
     8
 71
     3
 72
    11
 73
     7
 74
     5
 42
0.000000001
 43
0.0000000001
 44
0.00000001
 40
0.0
 40
0.0
 40
0.0
 40
0.0
 40
0.2866192758895658
 40
0.5861012894447599
 40
0.7272669633827981
 40
0.862007457561504
 40
0.862007457561504
 40
0.862007457561504
 40
0.862007457561504
 10
564.5521499960696
 20
-168.499374999556
 30
0.0
 10
564.4596164783546
 20
-168.4749620879257
 30
0.0
 10
564.270396780715
 20
-168.4250406605551
 30
0.0
 10
564.0490958958351
 20
-168.3239598216896
 30
0.0
 10
563.8774828434262
 20
-168.238459122071
 30
0.0
 10
563.7932739367417
 20
-168.2014273266804
 30
0.0
 10
563.7521499960698
 20
-168.1833426123772
 30
0.0
 11
564.5521499960696
 21
-168.499374999556
 31
0.0
 11
564.2771499970514
 21
-168.4185937496416
 31
0.0
 11
564.0021499980351
 21
-168.2999999999981
 31
0.0
 11
563.8750643437119
 21
-168.2385428261769
 31
0.0
 11
563.7521499960698
 21
-168.1833426123772
 31
0.0
  0
SPLINE
  5
174
330
63
100
AcDbEntity
  8
0
  6
Continuous
 62
     2
100
AcDbSpline
210
0.0
220
0.0
230
1.0
 70
     8
 71
     3
 72
     9
 73
     5
 74
     3
 42
0.000000001
 43
0.0000000001
 44
0.00000001
 40
0.0
 40
0.0
 40
0.0
 40
0.0
 40
0.4941398731261625
 40
1.016803318490654
 40
1.016803318490654
 40
1.016803318490654
 40
1.016803318490654
 10
569.0008266018749
 20
-168.5499995621531
 30
0.0
 10
568.835182853039
 20
-168.5387898206787
 30
0.0
 10
568.4943337919879
 20
-168.5157232507116
 30
0.0
 10
568.1810215538309
 20
-168.3790729039289
 30
0.0
 10
568.0199708885619
 20
-168.3088310492262
 30
0.0
 11
569.0008266018749
 21
-168.5499995621531
 31
0.0
 11
568.5103987452185
 21
-168.4895451763359
 31
0.0
 11
568.0199708885619
 21
-168.3088310492262
 31
0.0
  0
ENDBLK
  5
65
330
63
100
AcDbEntity
  8
0
100
AcDbBlockEnd
  0
BLOCK
  5
68
330
66
100
AcDbEntity
  8
0
100
AcDbBlockBegin
  2
Top1
 70
     0
 10
572.0021499980351
 20
294.5000000000011
 30
0.0
  3
Top1
  1

  0
INSERT
  5
67
330
66
100
AcDbEntity
  8
0
100
AcDbBlockReference
  2
EB_56_18-select__5
 10
563.7521499960698
 20
-208.9999999999982
 30
0.0
  0
DIMENSION
  5
17F
330
66
100
AcDbEntity
  8
1
100
AcDbDimension
  2
*D23
 10
553.7521499960698
 20
-130.9999999999983
 30
0.0
 11
550.5021499960698
 21
-169.0382623478544
 31
0.0
 70
    32
  1
<>
 71
     5
 42
-1.0
 53
90.0
  3
ME10_DIM_12
100
AcDbAlignedDimension
 13
563.7521499960699
 23
-208.9999999999982
 33
0.0
 14
563.7521499960698
 24
-130.9999999999982
 34
0.0
 50
90.0
100
AcDbRotatedDimension
  0
ENDBLK
  5
69
330
66
100
AcDbEntity
  8
0
100
AcDbBlockEnd
  0
BLOCK
  5
6B
330
6A
100
AcDbEntity
  8
0
100
AcDbBlockBegin
  2
3009299_eb56_18-select_1_1
 70
     0
 10
725.9146484206001
 20
-176.0505580237308
 30
0.0
  3
3009299_eb56_18-select_1_1
  1

  0
LINE
  5
180
330
6A
100
AcDbEntity
  8
0
  6
Continuous
 62
     7
100
AcDbLine
 10
711.4376029565466
 20
-181.8175353028086
 30
0.0
 11
711.4376029565465
 21
-179.1545180414841
 31
0.0
  0
LINE
  5
181
330
6A
100
AcDbEntity
  8
0
  6
Continuous
 62
     7
100
AcDbLine
 10
729.3961869528237
 20
-176.4085922840696
 30
0.0
 11
740.394709580886
 21
-179.5835922840696
 31
0.0
  0
LINE
  5
182
330
6A
100
AcDbEntity
  8
0
  6
Continuous
 62
     7
100
AcDbLine
 10
737.894709580886
 20
-183.0476938992074
 30
0.0
 11
737.894709580886
 21
-181.7486557935307
 31
0.0
  0
LINE
  5
183
330
6A
100
AcDbEntity
  8
0
  6
Continuous
 62
     7
100
AcDbLine
 10
726.8961869528237
 20
-179.8726938992073
 30
0.0
 11
737.894709580886
 21
-183.0476938992074
 31
0.0
  0
LINE
  5
184
330
6A
100
AcDbEntity
  8
0
  6
Continuous
 62
     7
100
AcDbLine
 10
737.894709580886
 20
-181.7486557935307
 30
0.0
 11
726.8961869528237
 21
-178.5736557935307
 31
0.0
  0
LINE
  5
185
330
6A
100
AcDbEntity
  8
0
  6
Continuous
 62
     7
100
AcDbLine
 10
740.394709580886
 20
-180.8826303897463
 30
0.0
 11
740.394709580886
 21
-179.5835922840696
 31
0.0
  0
LINE
  5
186
330
6A
100
AcDbEntity
  8
0
  6
Continuous
 62
     7
100
AcDbLine
 10
737.894709580886
 20
-181.7486557935307
 30
0.0
 11
740.394709580886
 21
-179.5835922840696
 31
0.0
  0
LINE
  5
187
330
6A
100
AcDbEntity
  8
0
  6
Continuous
 62
     7
100
AcDbLine
 10
737.894709580886
 20
-183.0476938992074
 30
0.0
 11
740.394709580886
 21
-180.8826303897463
 31
0.0
  0
LINE
  5
188
330
6A
100
AcDbEntity
  8
0
  6
Continuous
 62
     7
100
AcDbLine
 10
712.130423279574
 20
-187.0621441351656
 30
0.0
 11
713.4294613852508
 21
-187.4371441351656
 31
0.0
  0
LINE
  5
189
330
6A
100
AcDbEntity
  8
0
  6
Continuous
 62
     2
100
AcDbLine
 10
717.198068585256
 20
-187.2242964638219
 30
0.0
 11
713.063066022111
 21
-190.8053137282192
 31
0.0
  0
LINE
  5
18A
330
6A
100
AcDbEntity
  8
0
  6
Continuous
 62
     7
100
AcDbLine
 10
717.5566249025585
 20
-187.4159751820906
 30
0.0
 11
713.0851050708847
 21
-191.288424949846
 31
0.0
  0
LINE
  5
18B
330
6A
100
AcDbEntity
  8
0
  6
Continuous
 62
     7
100
AcDbLine
 10
712.130423279574
 20
-179.3545180414841
 30
0.0
 11
712.130423279574
 21
-179.6143256626194
 31
0.0
  0
LINE
  5
18C
330
6A
100
AcDbEntity
  8
0
  6
Continuous
 62
     7
100
AcDbLine
 10
712.130423279574
 20
-187.0621441351656
 30
0.0
 11
712.130423279574
 21
-188.348841850048
 31
0.0
  0
LINE
  5
18D
330
6A
100
AcDbEntity
  8
0
  6
Continuous
 62
     2
100
AcDbLine
 10
713.2447361876536
 20
-187.3838185638863
 30
0.0
 11
712.130423279574
 21
-188.348841850048
 31
0.0
  0
LINE
  5
18E
330
6A
100
AcDbEntity
  8
0
  6
Continuous
 62
     7
100
AcDbLine
 10
714.0384910359031
 20
-188.7034739414191
 30
0.0
 11
713.8123803862084
 21
-188.398274935594
 31
0.0
  0
LINE
  5
18F
330
6A
100
AcDbEntity
  8
0
  6
Continuous
 62
     7
100
AcDbLine
 10
713.5288573154802
 20
-187.3179493370627
 30
0.0
 11
715.0696052958244
 21
-180.2552179108135
 31
0.0
  0
LINE
  5
190
330
6A
100
AcDbEntity
  8
0
  6
Continuous
 62
     7
100
AcDbLine
 10
713.4294613852508
 20
-179.9893256626195
 30
0.0
 11
713.8794613852508
 21
-179.5996142309164
 31
0.0
  0
LINE
  5
191
330
6A
100
AcDbEntity
  8
0
  6
Continuous
 62
     7
100
AcDbLine
 10
712.130423279574
 20
-179.6143256626194
 30
0.0
 11
713.4294613852508
 21
-179.9893256626195
 31
0.0
  0
LINE
  5
192
330
6A
100
AcDbEntity
  8
0
  6
Continuous
 62
     7
100
AcDbLine
 10
714.8151020313059
 20
-179.8697104203488
 30
0.0
 11
712.3902309007094
 21
-179.1697104203488
 31
0.0
  0
LINE
  5
193
330
6A
100
AcDbEntity
  8
0
  6
Continuous
 62
     2
100
AcDbLine
 10
712.3531155262613
 20
-179.1616608986272
 30
0.0
 11
712.130423279574
 21
-179.3545180414841
 31
0.0
  0
LINE
  5
194
330
6A
100
AcDbEntity
  8
0
  6
Continuous
 62
     7
100
AcDbLine
 10
713.4294613852508
 20
-179.9893256626195
 30
0.0
 11
713.4294613852508
 21
-187.4371441351656
 31
0.0
  0
LINE
  5
195
330
6A
100
AcDbEntity
  8
0
  6
Continuous
 62
     7
100
AcDbLine
 10
713.5210418096601
 20
-187.3578331611379
 30
0.0
 11
713.4294613852508
 21
-187.4371441351656
 31
0.0
  0
LINE
  5
196
330
6A
100
AcDbEntity
  8
0
  6
Continuous
 62
     7
100
AcDbLine
 10
712.130423279574
 20
-179.6143256626194
 30
0.0
 11
712.580423279574
 21
-179.2246142309164
 31
0.0
  0
LINE
  5
197
330
6A
100
AcDbEntity
  8
0
  6
Continuous
 62
     7
100
AcDbLine
 10
712.3902309007093
 20
-178.4768900973212
 30
0.0
 11
714.8151020313057
 21
-179.1768900973212
 31
0.0
  0
LINE
  5
198
330
6A
100
AcDbEntity
  8
0
  6
Continuous
 62
     7
100
AcDbLine
 10
734.6161762669846
 20
-170.0123697807557
 30
0.0
 11
736.1659681297706
 21
-162.9081815338253
 31
0.0
  0
LINE
  5
199
330
6A
100
AcDbEntity
  8
0
  6
Continuous
 62
     7
100
AcDbLine
 10
714.2857266730047
 20
-188.0270136857602
 30
0.0
 11
714.5426906721204
 21
-188.3738578400217
 31
0.0
  0
LINE
  5
19A
330
6A
100
AcDbEntity
  8
0
  6
Continuous
 62
     7
100
AcDbLine
 10
728.994709580886
 20
-189.4562818872122
 30
0.0
 11
717.9961869528237
 21
-186.2812818872122
 31
0.0
  0
LINE
  5
19B
330
6A
100
AcDbEntity
  8
0
  6
Continuous
 62
     7
100
AcDbLine
 10
728.994709580886
 20
-190.7553199928889
 30
0.0
 11
728.994709580886
 21
-189.4562818872122
 31
0.0
  0
LINE
  5
19C
330
6A
100
AcDbEntity
  8
0
  6
Continuous
 62
     7
100
AcDbLine
 10
731.494709580886
 20
-187.2912183777511
 30
0.0
 11
731.494709580886
 21
-188.5902564834278
 31
0.0
  0
LINE
  5
19D
330
6A
100
AcDbEntity
  8
0
  6
Continuous
 62
     7
100
AcDbLine
 10
728.994709580886
 20
-189.4562818872122
 30
0.0
 11
731.494709580886
 21
-187.2912183777511
 31
0.0
  0
LINE
  5
19E
330
6A
100
AcDbEntity
  8
0
  6
Continuous
 62
     7
100
AcDbLine
 10
728.994709580886
 20
-190.7553199928889
 30
0.0
 11
731.494709580886
 21
-188.5902564834278
 31
0.0
  0
LINE
  5
19F
330
6A
100
AcDbEntity
  8
0
  6
Continuous
 62
     7
100
AcDbLine
 10
717.9961869528237
 20
-187.5803199928889
 30
0.0
 11
728.994709580886
 21
-190.7553199928889
 31
0.0
  0
LINE
  5
1A0
330
6A
100
AcDbEntity
  8
0
  6
Continuous
 62
     2
100
AcDbLine
 10
717.9961869528237
 20
-186.2812818872122
 30
0.0
 11
720.4961869528237
 21
-184.1162183777511
 31
0.0
  0
LINE
  5
1A1
330
6A
100
AcDbEntity
  8
0
  6
Continuous
 62
     2
100
AcDbLine
 10
726.098068585256
 20
-179.5166703701403
 30
0.0
 11
720.7142727566309
 21
-184.1791743265184
 31
0.0
  0
LINE
  5
1A2
330
6A
100
AcDbEntity
  8
0
  6
Continuous
 62
     7
100
AcDbLine
 10
733.502792532781
 20
-173.6061889213129
 30
0.0
 11
730.0491886339933
 21
-176.597097632272
 31
0.0
  0
LINE
  5
1A3
330
6A
100
AcDbEntity
  8
0
  6
Continuous
 62
     2
100
AcDbLine
 10
726.8961869528237
 20
-178.5736557935307
 30
0.0
 11
729.3961869528237
 21
-176.4085922840696
 31
0.0
  0
LINE
  5
1A4
330
6A
100
AcDbEntity
  8
0
  6
Continuous
 62
     7
100
AcDbLine
 10
726.4566249025586
 20
-179.708349088409
 30
0.0
 11
721.1491886339933
 21
-184.3047237259534
 31
0.0
  0
LINE
  5
1A5
330
6A
100
AcDbEntity
  8
0
  6
Continuous
 62
     7
100
AcDbLine
 10
720.4961869528237
 20
-184.1162183777511
 30
0.0
 11
731.494709580886
 21
-187.2912183777511
 31
0.0
  0
LINE
  5
1A6
330
6A
100
AcDbEntity
  8
0
  6
Continuous
 62
     2
100
AcDbLine
 10
733.4807534840072
 20
-173.123077699686
 30
0.0
 11
729.6142727566308
 21
-176.471548232837
 31
0.0
  0
LINE
  5
1A7
330
6A
100
AcDbEntity
  8
0
  6
Continuous
 62
     2
100
AcDbLine
 10
734.9603781340165
 20
-170.6916218114885
 30
0.0
 11
714.5426906721204
 21
-188.3738578400217
 31
0.0
  0
LINE
  5
1A8
330
6A
100
AcDbEntity
  8
0
  6
Continuous
 62
     2
100
AcDbLine
 10
734.7034141349009
 20
-170.344777657227
 30
0.0
 11
714.2857266730047
 21
-188.0270136857602
 31
0.0
  0
LINE
  5
1A9
330
6A
100
AcDbEntity
  8
0
  6
Continuous
 62
     7
100
AcDbLine
 10
734.9603781340165
 20
-170.6916218114885
 30
0.0
 11
734.7034141349009
 21
-170.344777657227
 31
0.0
  0
LINE
  5
1AA
330
6A
100
AcDbEntity
  8
0
  6
Continuous
 62
     2
100
AcDbLine
 10
734.6161762669846
 20
-170.0123697807557
 30
0.0
 11
714.1984888050882
 21
-187.6946058092889
 31
0.0
  0
LINE
  5
1AB
330
6A
100
AcDbEntity
  8
0
  6
Continuous
 62
     2
100
AcDbLine
 10
736.1659681297706
 20
-162.9081815338253
 30
0.0
 11
715.7482806678743
 21
-180.5904175623584
 31
0.0
  0
LINE
  5
1AC
330
6A
100
AcDbEntity
  8
0
  6
Continuous
 62
     2
100
AcDbLine
 10
735.2327894932021
 20
-161.4946540687881
 30
0.0
 11
714.8151020313057
 21
-179.1768900973212
 31
0.0
  0
LINE
  5
1AD
330
6A
100
AcDbEntity
  8
0
  6
Continuous
 62
     7
100
AcDbLine
 10
715.7482806678743
 20
-180.5904175623584
 30
0.0
 11
714.1984888050882
 21
-187.6946058092889
 31
0.0
  0
LINE
  5
1AE
330
6A
100
AcDbEntity
  8
0
  6
Continuous
 62
     7
100
AcDbLine
 10
734.9701397841912
 20
-171.1588014405947
 30
0.0
 11
714.5524523222949
 21
-188.8410374691278
 31
0.0
  0
LINE
  5
1AF
330
6A
100
AcDbEntity
  8
0
  6
Continuous
 62
     7
100
AcDbLine
 10
732.0877993248268
 20
-160.9157601723306
 30
0.0
 11
711.6701118629305
 21
-178.5979962008638
 31
0.0
  0
LINE
  5
1B0
330
6A
100
AcDbEntity
  8
0
  6
Continuous
 62
     7
100
AcDbLine
 10
732.8079183626056
 20
-160.7946540687881
 30
0.0
 11
735.2327894932021
 21
-161.4946540687881
 31
0.0
  0
LINE
  5
1B1
330
6A
100
AcDbEntity
  8
0
  6
Continuous
 62
     2
100
AcDbLine
 10
732.8079183626056
 20
-160.7946540687881
 30
0.0
 11
712.3902309007093
 21
-178.4768900973212
 31
0.0
  0
SPLINE
  5
1B2
330
6A
100
AcDbEntity
  8
0
  6
Continuous
 62
     7
100
AcDbSpline
210
0.0
220
0.0
230
1.0
 70
     8
 71
     3
 72
    11
 73
     7
 74
     5
 42
0.000000001
 43
0.0000000001
 44
0.00000001
 40
0.0
 40
0.0
 40
0.0
 40
0.0
 40
0.6274389264992591
 40
1.287473250174507
 40
1.972947282697588
 40
2.673576597908816
 40
2.673576597908816
 40
2.673576597908816
 40
2.673576597908816
 10
712.130423279574
 20
-188.348841850048
 30
0.0
 10
712.1429180036429
 20
-188.5582711012773
 30
0.0
 10
712.1685565665747
 20
-188.9880094333386
 30
0.0
 10
712.3617954191453
 20
-189.6216761046859
 30
0.0
 10
712.6507539557315
 20
-190.2431086266989
 30
0.0
 10
712.9246304982305
 20
-190.616550990893
 30
0.0
 10
713.063066022111
 20
-190.8053137282192
 30
0.0
 11
712.130423279574
 21
-188.348841850048
 31
0.0
 11
712.1917673504591
 21
-188.9732748031302
 31
0.0
 11
712.3733159189646
 21
-189.6078498012681
 31
0.0
 11
712.667721163576
 21
-190.2268814671881
 31
0.0
 11
713.063066022111
 21
-190.8053137282192
 31
0.0
  0
SPLINE
  5
1B3
330
6A
100
AcDbEntity
  8
0
  6
Continuous
 62
     7
100
AcDbSpline
210
0.0
220
0.0
230
1.0
 70
     8
 71
     3
 72
    11
 73
     7
 74
     5
 42
0.000000001
 43
0.0000000001
 44
0.00000001
 40
0.0
 40
0.0
 40
0.0
 40
0.0
 40
0.6771982858776651
 40
1.381324116134637
 40
2.105865169385839
 40
2.842526743178233
 40
2.842526743178233
 40
2.842526743178233
 40
2.842526743178233
 10
711.4631405380328
 20
-188.591583990813
 30
0.0
 10
711.4993299526661
 20
-188.8148757482022
 30
0.0
 10
711.5731478022063
 20
-189.2703380460451
 30
0.0
 10
711.8174065927018
 20
-189.932085406509
 30
0.0
 10
712.1458268865647
 20
-190.5776956813459
 30
0.0
 10
712.4367520157705
 20
-190.96934434503
 30
0.0
 10
712.5834211830921
 20
-191.1667930146583
 30
0.0
 11
711.4631405380328
 21
-188.591583990813
 31
0.0
 11
711.5924752384899
 21
-189.256317061199
 31
0.0
 11
711.8274216038362
 21
-189.9200891549515
 31
0.0
 11
712.1610276007835
 21
-190.5632584783917
 31
0.0
 11
712.5834211830921
 21
-191.1667930146583
 31
0.0
  0
SPLINE
  5
1B4
330
6A
100
AcDbEntity
  8
0
  6
Continuous
 62
     7
100
AcDbSpline
210
0.0
220
0.0
230
1.0
 70
     8
 71
     3
 72
    13
 73
     9
 74
     7
 42
0.000000001
 43
0.0000000001
 44
0.00000001
 40
0.0
 40
0.0
 40
0.0
 40
0.0
 40
0.1076212529559701
 40
0.2125301501652094
 40
0.311924605920618
 40
0.4042490558204965
 40
0.4898412831993711
 40
0.5712510847166952
 40
0.5712510847166952
 40
0.5712510847166952
 40
0.5712510847166952
 10
712.5834211830921
 20
-191.1667930146583
 30
0.0
 10
712.607521293677
 20
-191.1935351342704
 30
0.0
 10
712.6551141348423
 20
-191.2463453875965
 30
0.0
 10
712.7430079844809
 20
-191.3039060560559
 30
0.0
 10
712.835953704001
 20
-191.3402266795666
 30
0.0
 10
712.9286117774027
 20
-191.3506073168093
 30
0.0
 10
713.0163198801337
 20
-191.3360790266493
 30
0.0
 10
713.062562713915
 20
-191.3040422009069
 30
0.0
 10
713.0851050708847
 20
-191.288424949846
 30
0.0
 11
712.5834211830921
 21
-191.1667930146583
 31
0.0
 11
712.6588738954016
 21
-191.2435342798356
 31
0.0
 11
712.7462620883882
 21
-191.3015789222637
 31
0.0
 11
712.8392402841896
 21
-191.3367117171497
 31
0.0
 11
712.9310569029143
 21
-191.3463819375696
 31
0.0
 11
713.0150446726175
 21
-191.3298869452177
 31
0.0
 11
713.0851050708847
 21
-191.288424949846
 31
0.0
  0
SPLINE
  5
1B5
330
6A
100
AcDbEntity
  8
0
  6
Continuous
 62
     7
100
AcDbSpline
210
0.0
220
0.0
230
1.0
 70
     8
 71
     3
 72
    11
 73
     7
 74
     5
 42
0.000000001
 43
0.0000000001
 44
0.00000001
 40
0.0
 40
0.0
 40
0.0
 40
0.0
 40
0.1474635914919411
 40
0.2984196351966844
 40
0.4557118552574301
 40
0.6211166401220003
 40
0.6211166401220003
 40
0.6211166401220003
 40
0.6211166401220003
 10
711.6701118629305
 20
-178.5979962008638
 30
0.0
 10
711.6351010154258
 20
-178.6328500527655
 30
0.0
 10
711.5642501525117
 20
-178.7033832271911
 30
0.0
 10
711.4921906316365
 20
-178.8392257085513
 30
0.0
 10
711.4456665335665
 20
-178.9914342612634
 30
0.0
 10
711.440335484553
 20
-179.0992532618656
 30
0.0
 10
711.4376029565465
 20
-179.1545180414841
 30
0.0
 11
711.6701118629305
 21
-178.5979962008638
 31
0.0
 11
711.5708574669655
 21
-178.7070561667619
 31
0.0
 11
711.4976208182793
 21
-178.8390566256037
 31
0.0
 11
711.4527275103518
 21
-178.9898061994788
 31
0.0
 11
711.4376029565465
 21
-179.1545180414841
 31
0.0
  0
SPLINE
  5
1B6
330
6A
100
AcDbEntity
  8
0
  6
Continuous
 62
     7
100
AcDbSpline
210
0.0
220
0.0
230
1.0
 70
     8
 71
     3
 72
    11
 73
     7
 74
     5
 42
0.000000001
 43
0.0000000001
 44
0.00000001
 40
0.0
 40
0.0
 40
0.0
 40
0.0
 40
0.2058553098989487
 40
0.3993399032463537
 40
0.5824920144164099
 40
0.7597079127488615
 40
0.7597079127488615
 40
0.7597079127488615
 40
0.7597079127488615
 10
712.3902309007093
 20
-178.4768900973212
 30
0.0
 10
712.3230642246034
 20
-178.4614012165921
 30
0.0
 10
712.1927671998251
 20
-178.431354261901
 30
0.0
 10
711.9968961912928
 20
-178.4411959460527
 30
0.0
 10
711.8159742666066
 20
-178.4917180905941
 30
0.0
 10
711.7181957715852
 20
-178.5629613482062
 30
0.0
 10
711.6701118629305
 20
-178.5979962008638
 30
0.0
 11
712.3902309007093
 21
-178.4768900973212
 31
0.0
 11
712.1876715301969
 21
-178.4402007231037
 31
0.0
 11
711.9943762595641
 21
-178.4487580063332
 31
0.0
 11
711.8191856168713
 21
-178.5021708847465
 31
0.0
 11
711.6701118629305
 21
-178.5979962008638
 31
0.0
  0
SPLINE
  5
1B7
330
6A
100
AcDbEntity
  8
0
  6
Continuous
 62
     7
100
AcDbSpline
210
0.0
220
0.0
230
1.0
 70
     8
 71
     3
 72
    13
 73
     9
 74
     7
 42
0.000000001
 43
0.0000000001
 44
0.00000001
 40
0.0
 40
0.0
 40
0.0
 40
0.0
 40
0.0762577308335023
 40
0.1559978279964167
 40
0.241487648705235
 40
0.3332843717831721
 40
0.4304028886451701
 40
0.5307623817974516
 40
0.5307623817974516
 40
0.5307623817974516
 40
0.5307623817974516
 10
713.0851050708847
 20
-191.288424949846
 30
0.0
 10
713.1027142075166
 20
-191.2697652925902
 30
0.0
 10
713.1387366042361
 20
-191.2315938620298
 30
0.0
 10
713.1663102630221
 20
-191.1537943652918
 30
0.0
 10
713.1729285633562
 20
-191.0676708779039
 30
0.0
 10
713.1568165669917
 20
-190.9768280739364
 30
0.0
 10
713.1210492597947
 20
-190.8862879044173
 30
0.0
 10
713.0826040905798
 20
-190.8325988297408
 30
0.0
 10
713.063066022111
 20
-190.8053137282192
 30
0.0
 11
713.0851050708847
 21
-191.288424949846
 31
0.0
 11
713.1335809210792
 21
-191.2295578617103
 31
0.0
 11
713.1622506196583
 21
-191.1551499843555
 31
0.0
 11
713.169284140154
 21
-191.0699499869372
 31
0.0
 11
713.1542328808191
 21
-190.9793955929072
 31
0.0
 11
713.1180571532374
 21
-190.8892661130373
 31
0.0
 11
713.063066022111
 21
-190.8053137282192
 31
0.0
  0
SPLINE
  5
1B8
330
6A
100
AcDbEntity
  8
0
  6
Continuous
 62
     7
100
AcDbSpline
210
0.0
220
0.0
230
1.0
 70
     8
 71
     3
 72
    13
 73
     9
 74
     7
 42
0.000000001
 43
0.0000000001
 44
0.00000001
 40
0.0
 40
0.0
 40
0.0
 40
0.0
 40
0.1110782345454636
 40
0.2198083951444532
 40
0.322993620541502
 40
0.4187481578780602
 40
0.5072630777592763
 40
0.5912209744632423
 40
0.5912209744632423
 40
0.5912209744632423
 40
0.5912209744632423
 10
714.0384910359031
 20
-188.7034739414191
 30
0.0
 10
714.0623689633816
 20
-188.73195038246
 30
0.0
 10
714.1096200750744
 20
-188.7883012937758
 30
0.0
 10
714.1989026159172
 20
-188.8505590811525
 30
0.0
 10
714.2943275749935
 20
-188.8907251927399
 30
0.0
 10
714.3901381044546
 20
-188.9035768927361
 30
0.0
 10
714.4812254576678
 20
-188.8900046500889
 30
0.0
 10
714.5291319599005
 20
-188.8570698019528
 30
0.0
 10
714.5524523222949
 20
-188.8410374691278
 30
0.0
 11
714.0384910359031
 21
-188.7034739414191
 31
0.0
 11
714.1135745489971
 21
-188.7853325983312
 31
0.0
 11
714.2023171586611
 21
-188.8481577296049
 31
0.0
 11
714.2978713569115
 21
-188.8871011023442
 31
0.0
 11
714.3928637702337
 21
-188.8991581935988
 31
0.0
 11
714.4799643531975
 21
-188.883398105047
 31
0.0
 11
714.5524523222949
 21
-188.8410374691278
 31
0.0
  0
SPLINE
  5
1B9
330
6A
100
AcDbEntity
  8
0
  6
Continuous
 62
     7
100
AcDbSpline
210
0.0
220
0.0
230
1.0
 70
     8
 71
     3
 72
    11
 73
     7
 74
     5
 42
0.000000001
 43
0.0000000001
 44
0.00000001
 40
0.0
 40
0.0
 40
0.0
 40
0.0
 40
0.262653990562588
 40
0.5436900253696717
 40
0.8406228692903008
 40
1.148001624881214
 40
1.148001624881214
 40
1.148001624881214
 40
1.148001624881214
 10
713.5288573154802
 20
-187.3179493370627
 30
0.0
 10
713.5170789356362
 20
-187.4051747011851
 30
0.0
 10
713.4926978718416
 20
-187.5857299656168
 30
0.0
 10
713.5419582998124
 20
-187.8651409041329
 30
0.0
 10
713.643471867862
 20
-188.1443839510058
 30
0.0
 10
713.755432439131
 20
-188.312674937558
 30
0.0
 10
713.8123803862084
 20
-188.398274935594
 30
0.0
 11
713.5288573154802
 21
-187.3179493370627
 31
0.0
 11
713.506647813577
 21
-187.5796626489737
 31
0.0
 11
713.548687464135
 21
-187.8575365810013
 31
0.0
 11
713.6525761475715
 21
-188.1357024603387
 31
0.0
 11
713.8123803862084
 21
-188.398274935594
 31
0.0
  0
SPLINE
  5
1BA
330
6A
100
AcDbEntity
  8
0
  6
Continuous
 62
     7
100
AcDbSpline
210
0.0
220
0.0
230
1.0
 70
     8
 71
     3
 72
     9
 73
     5
 74
     3
 42
0.000000001
 43
0.0000000001
 44
0.00000001
 40
0.0
 40
0.0
 40
0.0
 40
0.0
 40
0.0808410949937031
 40
0.168419079315153
 40
0.168419079315153
 40
0.168419079315153
 40
0.168419079315153
 10
712.193834799497
 20
-179.2027393576786
 30
0.0
 10
712.1755993094703
 20
-179.2235602372313
 30
0.0
 10
712.137608692286
 20
-179.266937113086
 30
0.0
 10
712.1328814419796
 20
-179.324556128765
 30
0.0
 10
712.130423279574
 20
-179.3545180414841
 30
0.0
 11
712.193834799497
 21
-179.2027393576786
 31
0.0
 11
712.1467922040066
 21
-179.268483385519
 31
0.0
 11
712.130423279574
 21
-179.3545180414841
 31
0.0
  0
SPLINE
  5
1BB
330
6A
100
AcDbEntity
  8
0
  6
Continuous
 62
     7
100
AcDbSpline
210
0.0
220
0.0
230
1.0
 70
     8
 71
     3
 72
    11
 73
     7
 74
     5
 42
0.000000001
 43
0.0000000001
 44
0.00000001
 40
0.0
 40
0.0
 40
0.0
 40
0.0
 40
0.056142356981503
 40
0.1089108807814332
 40
0.1588614544872628
 40
0.2071930616846051
 40
0.2071930616846051
 40
0.2071930616846051
 40
0.2071930616846051
 10
712.3902309007094
 20
-179.1697104203488
 30
0.0
 10
712.3719127164029
 20
-179.1654861801697
 30
0.0
 10
712.3363771631323
 20
-179.1572915667732
 30
0.0
 10
712.2829577985016
 20
-179.1599756574888
 30
0.0
 10
712.2336154593739
 20
-179.1737544285926
 30
0.0
 10
712.2069485923763
 20
-179.1931843981473
 30
0.0
 10
712.193834799497
 20
-179.2027393576786
 30
0.0
 11
712.3902309007094
 21
-179.1697104203488
 31
0.0
 11
712.3349874360242
 21
-179.1597042273803
 31
0.0
 11
712.2822705440334
 21
-179.1620380318975
 31
0.0
 11
712.2344912778445
 21
-179.1766051805556
 31
0.0
 11
712.193834799497
 21
-179.2027393576786
 31
0.0
  0
SPLINE
  5
1BC
330
6A
100
AcDbEntity
  8
0
  6
Continuous
 62
     7
100
AcDbSpline
210
0.0
220
0.0
230
1.0
 70
     8
 71
     3
 72
    11
 73
     7
 74
     5
 42
0.000000001
 43
0.0000000001
 44
0.00000001
 40
0.0
 40
0.0
 40
0.0
 40
0.0
 40
0.0808166113635934
 40
0.1672892356605574
 40
0.2586531862664525
 40
0.3532312648428505
 40
0.3532312648428505
 40
0.3532312648428505
 40
0.3532312648428505
 10
734.6161762669846
 20
-170.0123697807557
 30
0.0
 10
734.6125521501596
 20
-170.0392083539608
 30
0.0
 10
734.6050502948827
 20
-170.0947638197296
 30
0.0
 10
734.620207344026
 20
-170.1807364149204
 30
0.0
 10
734.6514422921996
 20
-170.2666573495327
 30
0.0
 10
734.6858916896587
 20
-170.3184391963114
 30
0.0
 10
734.7034141349009
 20
-170.344777657227
 30
0.0
 11
734.6161762669846
 21
-170.0123697807557
 31
0.0
 11
734.6093425740913
 21
-170.0928969536515
 31
0.0
 11
734.6222778511861
 21
-170.1783966250446
 31
0.0
 11
734.6542435999359
 21
-170.2639861263792
 31
0.0
 11
734.7034141349009
 21
-170.344777657227
 31
0.0
  0
SPLINE
  5
1BD
330
6A
100
AcDbEntity
  8
0
  6
Continuous
 62
     7
100
AcDbSpline
210
0.0
220
0.0
230
1.0
 70
     8
 71
     3
 72
     9
 73
     5
 74
     3
 42
0.000000001
 43
0.0000000001
 44
0.00000001
 40
0.0
 40
0.0
 40
0.0
 40
0.0
 40
0.2556179374577732
 40
0.5122561612633072
 40
0.5122561612633072
 40
0.5122561612633072
 40
0.5122561612633072
 10
733.1831473419319
 20
-172.7063822919622
 30
0.0
 10
733.2297625934978
 20
-172.7777548563951
 30
0.0
 10
733.323179175524
 20
-172.9207848539324
 30
0.0
 10
733.4281590112623
 20
-173.0555572773853
 30
0.0
 10
733.4807534840072
 20
-173.123077699686
 30
0.0
 11
733.1831473419319
 21
-172.7063822919622
 31
0.0
 11
733.3258724142228
 21
-172.9184438015097
 31
0.0
 11
733.4807534840072
 21
-173.123077699686
 31
0.0
  0
SPLINE
  5
1BE
330
6A
100
AcDbEntity
  8
0
  6
Continuous
 62
     7
100
AcDbSpline
210
0.0
220
0.0
230
1.0
 70
     8
 71
     3
 72
    11
 73
     7
 74
     5
 42
0.000000001
 43
0.0000000001
 44
0.00000001
 40
0.0
 40
0.0
 40
0.0
 40
0.0
 40
0.111005478308956
 40
0.2317176309429588
 40
0.3655438357716959
 40
0.5091182748687698
 40
0.5091182748687698
 40
0.5091182748687698
 40
0.5091182748687698
 10
734.9701397841912
 20
-171.1588014405947
 30
0.0
 10
734.9946186741429
 20
-171.1301104351872
 30
0.0
 10
735.0457169546089
 20
-171.0702195829783
 30
0.0
 10
735.0613019121722
 20
-170.943833135001
 30
0.0
 10
735.0356393389445
 20
-170.8114710656849
 30
0.0
 10
734.9860461308567
 20
-170.7324966499774
 30
0.0
 10
734.9603781340165
 20
-170.6916218114885
 30
0.0
 11
734.9701397841912
 21
-171.1588014405947
 31
0.0
 11
735.0341169532936
 21
-171.0680868396896
 31
0.0
 11
735.0546119617418
 21
-170.9491272682887
 31
0.0
 11
735.0288871796278
 21
-170.8177968090252
 31
0.0
 11
734.9603781340165
 21
-170.6916218114885
 31
0.0
  0
SPLINE
  5
1BF
330
6A
100
AcDbEntity
  8
0
  6
Continuous
 62
     7
100
AcDbSpline
210
0.0
220
0.0
230
1.0
 70
     8
 71
     3
 72
     9
 73
     5
 74
     3
 42
0.000000001
 43
0.0000000001
 44
0.00000001
 40
0.0
 40
0.0
 40
0.0
 40
0.0
 40
0.1813310955788655
 40
0.3573463714340859
 40
0.3573463714340859
 40
0.3573463714340859
 40
0.3573463714340859
 10
717.6669347801728
 20
-186.1438165409647
 30
0.0
 10
717.7207025105639
 20
-186.1716871530143
 30
0.0
 10
717.8266617492404
 20
-186.2266113167549
 30
0.0
 10
717.9402417477611
 20
-186.2632399970424
 30
0.0
 10
717.9961869528237
 20
-186.2812818872122
 30
0.0
 11
717.6669347801728
 21
-186.1438165409647
 31
0.0
 11
717.8302002698667
 21
-186.2227174047115
 31
0.0
 11
717.9961869528237
 21
-186.2812818872122
 31
0.0
  0
SPLINE
  5
1C0
330
6A
100
AcDbEntity
  8
0
  6
Continuous
 62
     7
100
AcDbSpline
210
0.0
220
0.0
230
1.0
 70
     8
 71
     3
 72
    13
 73
     9
 74
     7
 42
0.000000001
 43
0.0000000001
 44
0.00000001
 40
0.0
 40
0.0
 40
0.0
 40
0.0
 40
0.0752988098558494
 40
0.1569281482240706
 40
0.2433255234497409
 40
0.3316516740247055
 40
0.4186000546058165
 40
0.5011954060637874
 40
0.5011954060637874
 40
0.5011954060637874
 40
0.5011954060637874
 10
715.0696052958244
 20
-180.2552179108135
 30
0.0
 10
715.0724844054206
 20
-180.2301008972599
 30
0.0
 10
715.0784846626354
 20
-180.1777552294827
 30
0.0
 10
715.0577607866036
 20
-180.0977236549377
 30
0.0
 10
715.0189022267359
 20
-180.0210372023602
 30
0.0
 10
714.9623349452302
 20
-179.9538680049724
 30
0.0
 10
714.8940924921574
 20
-179.8996542317902
 30
0.0
 10
714.8409776126623
 20
-179.8795193657698
 30
0.0
 10
714.8151020313059
 20
-179.8697104203488
 30
0.0
 11
715.0696052958244
 21
-180.2552179108135
 31
0.0
 11
715.0737839199641
 21
-180.1800351322908
 31
0.0
 11
715.0555331810137
 21
-180.1004722010724
 31
0.0
 11
715.0164350262543
 21
-180.0234277900763
 31
0.0
 11
714.9598800218131
 21
-179.9555820778428
 31
0.0
 11
714.8907715401216
 21
-179.902818085938
 31
0.0
 11
714.8151020313059
 21
-179.8697104203488
 31
0.0
  0
SPLINE
  5
1C1
330
6A
100
AcDbEntity
  8
0
  6
Continuous
 62
     7
100
AcDbSpline
210
0.0
220
0.0
230
1.0
 70
     8
 71
     3
 72
    13
 73
     9
 74
     7
 42
0.000000001
 43
0.0000000001
 44
0.00000001
 40
0.0
 40
0.0
 40
0.0
 40
0.0
 40
0.2760956418110091
 40
0.5754032258546025
 40
0.8921936097912111
 40
1.216056166736445
 40
1.534866898566404
 40
1.837716520623062
 40
1.837716520623062
 40
1.837716520623062
 40
1.837716520623062
 10
715.7482806678743
 20
-180.5904175623584
 30
0.0
 10
715.7588374032775
 20
-180.4983218441031
 30
0.0
 10
715.7808383863221
 20
-180.3063877257675
 30
0.0
 10
715.7048508201373
 20
-180.0129386107981
 30
0.0
 10
715.5623694341934
 20
-179.7317549445967
 30
0.0
 10
715.354956061196
 20
-179.4854678882973
 30
0.0
 10
715.1047337379682
 20
-179.2866840367689
 30
0.0
 10
714.9099791629608
 20
-179.2128562305368
 30
0.0
 10
714.8151020313057
 20
-179.1768900973212
 30
0.0
 11
715.7482806678743
 21
-180.5904175623584
 31
0.0
 11
715.7636022897194
 21
-180.3147473744421
 31
0.0
 11
715.6966829135683
 21
-180.0230166266414
 31
0.0
 11
715.5533230127836
 21
-179.7405204529887
 31
0.0
 11
715.3459546631659
 21
-179.4917528414658
 31
0.0
 11
715.0925568969637
 21
-179.2982848711483
 31
0.0
 11
714.8151020313057
 21
-179.1768900973212
 31
0.0
  0
SPLINE
  5
1C2
330
6A
100
AcDbEntity
  8
0
  6
Continuous
 62
     7
100
AcDbSpline
210
0.0
220
0.0
230
1.0
 70
     8
 71
     3
 72
     9
 73
     5
 74
     3
 42
0.000000001
 43
0.0000000001
 44
0.00000001
 40
0.0
 40
0.0
 40
0.0
 40
0.0
 40
0.1813310955788779
 40
0.3573463714340983
 40
0.3573463714340983
 40
0.3573463714340983
 40
0.3573463714340983
 10
729.0669347801728
 20
-176.2711269378221
 30
0.0
 10
729.120702510564
 20
-176.2989975498718
 30
0.0
 10
729.2266617492405
 20
-176.3539217136123
 30
0.0
 10
729.3402417477606
 20
-176.3905503938998
 30
0.0
 10
729.3961869528237
 20
-176.4085922840696
 30
0.0
 11
729.0669347801728
 21
-176.2711269378221
 31
0.0
 11
729.2302002698667
 21
-176.3500278015689
 31
0.0
 11
729.3961869528237
 21
-176.4085922840696
 31
0.0
  0
SPLINE
  5
1C3
330
6A
100
AcDbEntity
  8
0
  6
Continuous
 62
     7
100
AcDbSpline
210
0.0
220
0.0
230
1.0
 70
     8
 71
     3
 72
     9
 73
     5
 74
     3
 42
0.000000001
 43
0.0000000001
 44
0.00000001
 40
0.0
 40
0.0
 40
0.0
 40
0.0
 40
0.1813310955788655
 40
0.357346371434007
 40
0.357346371434007
 40
0.357346371434007
 40
0.357346371434007
 10
726.5669347801729
 20
-178.4361904472831
 30
0.0
 10
726.620702510564
 20
-178.4640610593327
 30
0.0
 10
726.7266617492405
 20
-178.5189852230733
 30
0.0
 10
726.8402417477608
 20
-178.5556139033608
 30
0.0
 10
726.8961869528237
 20
-178.5736557935307
 30
0.0
 11
726.5669347801729
 21
-178.4361904472831
 31
0.0
 11
726.7302002698668
 21
-178.5150913110299
 31
0.0
 11
726.8961869528237
 21
-178.5736557935307
 31
0.0
  0
SPLINE
  5
1C4
330
6A
100
AcDbEntity
  8
0
  6
Continuous
 62
     7
100
AcDbSpline
210
0.0
220
0.0
230
1.0
 70
     8
 71
     3
 72
     9
 73
     5
 74
     3
 42
0.000000001
 43
0.0000000001
 44
0.00000001
 40
0.0
 40
0.0
 40
0.0
 40
0.0
 40
0.7160594047426192
 40
1.399071647698693
 40
1.399071647698693
 40
1.399071647698693
 40
1.399071647698693
 10
725.6710618883637
 20
-179.2120391301517
 30
0.0
 10
725.8630991635467
 20
-179.3564062909314
 30
0.0
 10
726.2383109302473
 20
-179.6384778453214
 30
0.0
 10
726.6803755796401
 20
-179.7958610584386
 30
0.0
 10
726.8961869528237
 20
-179.8726938992073
 30
0.0
 11
725.6710618883637
 21
-179.2120391301517
 31
0.0
 11
726.264685823873
 21
-179.6124785085338
 31
0.0
 11
726.8961869528237
 21
-179.8726938992073
 31
0.0
  0
SPLINE
  5
1C5
330
6A
100
AcDbEntity
  8
0
  6
Continuous
 62
     7
100
AcDbSpline
210
0.0
220
0.0
230
1.0
 70
     8
 71
     3
 72
    13
 73
     9
 74
     7
 42
0.000000001
 43
0.0000000001
 44
0.00000001
 40
0.0
 40
0.0
 40
0.0
 40
0.0
 40
0.0762577308334959
 40
0.1559978279964777
 40
0.2414876487052582
 40
0.3332843717831767
 40
0.4304028886451324
 40
0.5307623817975622
 40
0.5307623817975622
 40
0.5307623817975622
 40
0.5307623817975622
 10
733.502792532781
 20
-173.6061889213129
 30
0.0
 10
733.5204016694126
 20
-173.5875292640571
 30
0.0
 10
733.5564240661323
 20
-173.5493578334967
 30
0.0
 10
733.5839977249183
 20
-173.4715583367586
 30
0.0
 10
733.5906160252523
 20
-173.3854348493708
 30
0.0
 10
733.5745040288881
 20
-173.2945920454032
 30
0.0
 10
733.5387367216911
 20
-173.2040518758841
 30
0.0
 10
733.5002915524763
 20
-173.1503628012076
 30
0.0
 10
733.4807534840072
 20
-173.123077699686
 30
0.0
 11
733.502792532781
 21
-173.6061889213129
 31
0.0
 11
733.5512683829754
 21
-173.5473218331772
 31
0.0
 11
733.5799380815546
 21
-173.4729139558223
 31
0.0
 11
733.5869716020502
 21
-173.387713958404
 31
0.0
 11
733.5719203427154
 21
-173.297159564374
 31
0.0
 11
733.5357446151338
 21
-173.2070300845042
 31
0.0
 11
733.4807534840072
 21
-173.123077699686
 31
0.0
  0
SPLINE
  5
1C6
330
6A
100
AcDbEntity
  8
0
  6
Continuous
 62
     7
100
AcDbSpline
210
0.0
220
0.0
230
1.0
 70
     8
 71
     3
 72
     9
 73
     5
 74
     3
 42
0.000000001
 43
0.0000000001
 44
0.00000001
 40
0.0
 40
0.0
 40
0.0
 40
0.0
 40
0.1813310955788126
 40
0.357346371434033
 40
0.357346371434033
 40
0.357346371434033
 40
0.357346371434033
 10
720.1669347801729
 20
-183.9787530315035
 30
0.0
 10
720.2207025105639
 20
-184.0066236435532
 30
0.0
 10
720.3266617492405
 20
-184.0615478072939
 30
0.0
 10
720.440241747761
 20
-184.0981764875813
 30
0.0
 10
720.4961869528237
 20
-184.1162183777511
 30
0.0
 11
720.1669347801729
 21
-183.9787530315035
 31
0.0
 11
720.3302002698667
 21
-184.0576538952504
 31
0.0
 11
720.4961869528237
 21
-184.1162183777511
 31
0.0
  0
SPLINE
  5
1C7
330
6A
100
AcDbEntity
  8
0
  6
Continuous
 62
     7
100
AcDbSpline
210
0.0
220
0.0
230
1.0
 70
     8
 71
     3
 72
     9
 73
     5
 74
     3
 42
0.000000001
 43
0.0000000001
 44
0.00000001
 40
0.0
 40
0.0
 40
0.0
 40
0.0
 40
0.7160594047426192
 40
1.399071647698798
 40
1.399071647698798
 40
1.399071647698798
 40
1.399071647698798
 10
716.7710618883636
 20
-186.9196652238333
 30
0.0
 10
716.9630991635465
 20
-187.064032384613
 30
0.0
 10
717.3383109302472
 20
-187.3461039390031
 30
0.0
 10
717.7803755796401
 20
-187.5034871521203
 30
0.0
 10
717.9961869528237
 20
-187.5803199928889
 30
0.0
 11
716.7710618883636
 21
-186.9196652238333
 31
0.0
 11
717.364685823873
 21
-187.3201046022154
 31
0.0
 11
717.9961869528237
 21
-187.5803199928889
 31
0.0
  0
SPLINE
  5
1C8
330
6A
100
AcDbEntity
  8
0
  6
Continuous
 62
     7
100
AcDbSpline
210
0.0
220
0.0
230
1.0
 70
     8
 71
     3
 72
    11
 73
     7
 74
     5
 42
0.000000001
 43
0.0000000001
 44
0.00000001
 40
0.0
 40
0.0
 40
0.0
 40
0.0
 40
0.1110054783089751
 40
0.2317176309429025
 40
0.3655438357716735
 40
0.5091182748686433
 40
0.5091182748686433
 40
0.5091182748686433
 40
0.5091182748686433
 10
714.5524523222949
 20
-188.8410374691278
 30
0.0
 10
714.5769312122464
 20
-188.8123464637204
 30
0.0
 10
714.6280294927128
 20
-188.7524556115115
 30
0.0
 10
714.6436144502761
 20
-188.6260691635343
 30
0.0
 10
714.6179518770482
 20
-188.4937070942181
 30
0.0
 10
714.5683586689606
 20
-188.4147326785106
 30
0.0
 10
714.5426906721204
 20
-188.3738578400217
 30
0.0
 11
714.5524523222949
 21
-188.8410374691278
 31
0.0
 11
714.6164294913974
 21
-188.7503228682228
 31
0.0
 11
714.6369244998455
 21
-188.6313632968219
 31
0.0
 11
714.6111997177316
 21
-188.5000328375584
 31
0.0
 11
714.5426906721204
 21
-188.3738578400217
 31
0.0
  0
SPLINE
  5
1C9
330
6A
100
AcDbEntity
  8
0
  6
Continuous
 62
     7
100
AcDbSpline
210
0.0
220
0.0
230
1.0
 70
     8
 71
     3
 72
    11
 73
     7
 74
     5
 42
0.000000001
 43
0.0000000001
 44
0.00000001
 40
0.0
 40
0.0
 40
0.0
 40
0.0
 40
0.0808166113635838
 40
0.1672892356605138
 40
0.2586531862664486
 40
0.3532312648429058
 40
0.3532312648429058
 40
0.3532312648429058
 40
0.3532312648429058
 10
714.1984888050882
 20
-187.6946058092889
 30
0.0
 10
714.1948646882635
 20
-187.721444382494
 30
0.0
 10
714.1873628329865
 20
-187.7769998482628
 30
0.0
 10
714.2025198821294
 20
-187.8629724434537
 30
0.0
 10
714.2337548303028
 20
-187.9488933780657
 30
0.0
 10
714.2682042277627
 20
-188.0006752248447
 30
0.0
 10
714.2857266730047
 20
-188.0270136857602
 30
0.0
 11
714.1984888050882
 21
-187.6946058092889
 31
0.0
 11
714.1916551121951
 21
-187.7751329821847
 31
0.0
 11
714.2045903892897
 21
-187.8606326535778
 31
0.0
 11
714.2365561380395
 21
-187.9462221549124
 31
0.0
 11
714.2857266730047
 21
-188.0270136857602
 31
0.0
  0
SPLINE
  5
1CA
330
6A
100
AcDbEntity
  8
0
  6
Continuous
 62
     7
100
AcDbSpline
210
0.0
220
0.0
230
1.0
 70
     8
 71
     3
 72
    11
 73
     7
 74
     5
 42
0.000000001
 43
0.0000000001
 44
0.00000001
 40
0.0
 40
0.0
 40
0.0
 40
0.0
 40
0.2058553098990605
 40
0.3993399032463495
 40
0.5824920144164056
 40
0.7597079127488267
 40
0.7597079127488267
 40
0.7597079127488267
 40
0.7597079127488267
 10
732.8079183626056
 20
-160.7946540687881
 30
0.0
 10
732.7407516864998
 20
-160.779165188059
 30
0.0
 10
732.6104546617213
 20
-160.749118233368
 30
0.0
 10
732.4145836531893
 20
-160.7589599175195
 30
0.0
 10
732.2336617285029
 20
-160.8094820620611
 30
0.0
 10
732.1358832334814
 20
-160.880725319673
 30
0.0
 10
732.0877993248268
 20
-160.9157601723306
 30
0.0
 11
732.8079183626056
 21
-160.7946540687881
 31
0.0
 11
732.6053589920931
 21
-160.7579646945706
 31
0.0
 11
732.4120637214604
 21
-160.7665219778
 31
0.0
 11
732.2368730787676
 21
-160.8199348562133
 31
0.0
 11
732.0877993248268
 21
-160.9157601723306
 31
0.0
  0
SPLINE
  5
1CB
330
6A
100
AcDbEntity
  8
0
  6
Continuous
 62
     7
100
AcDbSpline
210
0.0
220
0.0
230
1.0
 70
     8
 71
     3
 72
    13
 73
     9
 74
     7
 42
0.000000001
 43
0.0000000001
 44
0.00000001
 40
0.0
 40
0.0
 40
0.0
 40
0.0
 40
0.2760956418110596
 40
0.575403225854572
 40
0.8921936097912575
 40
1.216056166736418
 40
1.534866898566361
 40
1.837716520623029
 40
1.837716520623029
 40
1.837716520623029
 40
1.837716520623029
 10
736.1659681297706
 20
-162.9081815338253
 30
0.0
 10
736.1765248651737
 20
-162.81608581557
 30
0.0
 10
736.1985258482183
 20
-162.6241516972344
 30
0.0
 10
736.1225382820337
 20
-162.330702582265
 30
0.0
 10
735.9800568960898
 20
-162.0495189160637
 30
0.0
 10
735.7726435230924
 20
-161.803231859764
 30
0.0
 10
735.5224211998645
 20
-161.6044480082359
 30
0.0
 10
735.3276666248569
 20
-161.5306202020035
 30
0.0
 10
735.2327894932021
 20
-161.4946540687881
 30
0.0
 11
736.1659681297706
 21
-162.9081815338253
 31
0.0
 11
736.1812897516156
 21
-162.632511345909
 31
0.0
 11
736.1143703754647
 21
-162.3407805981083
 31
0.0
 11
735.9710104746798
 21
-162.0582844244556
 31
0.0
 11
735.7636421250622
 21
-161.8095168129327
 31
0.0
 11
735.5102443588601
 21
-161.6160488426152
 31
0.0
 11
735.2327894932021
 21
-161.4946540687881
 31
0.0
  0
ENDBLK
  5
6C
330
6A
100
AcDbEntity
  8
0
100
AcDbBlockEnd
  0
BLOCK
  5
6E
330
6D
100
AcDbEntity
  8
0
100
AcDbBlockBegin
  2
3009299_eb56_18-select_1_2
 70
     0
 10
703.5669296338733
 20
-196.4589838590462
 30
0.0
  3
3009299_eb56_18-select_1_2
  1

  0
LINE
  5
1CC
330
6D
100
AcDbEntity
  8
0
  6
Continuous
 62
     7
100
AcDbLine
 10
707.894709580886
 20
-209.0284560127405
 30
0.0
 11
710.394709580886
 21
-206.8633925032794
 31
0.0
  0
LINE
  5
1CD
330
6D
100
AcDbEntity
  8
0
  6
Continuous
 62
     7
100
AcDbLine
 10
707.894709580886
 20
-209.0284560127405
 30
0.0
 11
707.894709580886
 21
-207.7294179070639
 31
0.0
  0
LINE
  5
1CE
330
6D
100
AcDbEntity
  8
0
  6
Continuous
 62
     7
100
AcDbLine
 10
696.8961869528237
 20
-205.8534560127405
 30
0.0
 11
707.894709580886
 21
-209.0284560127405
 31
0.0
  0
LINE
  5
1CF
330
6D
100
AcDbEntity
  8
0
  6
Continuous
 62
     2
100
AcDbLine
 10
711.0672482060648
 20
-190.4063397134044
 30
0.0
 11
690.6161762669846
 21
-208.117487547271
 31
0.0
  0
LINE
  5
1D0
330
6D
100
AcDbEntity
  8
0
  6
Continuous
 62
     7
100
AcDbLine
 10
712.6170400688509
 20
-183.302151466474
 30
0.0
 11
711.0672482060648
 21
-190.4063397134044
 31
0.0
  0
LINE
  5
1D1
330
6D
100
AcDbEntity
  8
0
  6
Continuous
 62
     7
100
AcDbLine
 10
691.2327894932021
 20
-199.5997718353033
 30
0.0
 11
688.8079183626056
 21
-198.8997718353033
 31
0.0
  0
LINE
  5
1D2
330
6D
100
AcDbEntity
  8
0
  6
Continuous
 62
     7
100
AcDbLine
 10
688.5981107414702
 20
-199.9939061304123
 30
0.0
 11
688.9981107414702
 21
-199.6474959688985
 31
0.0
  0
LINE
  5
1D3
330
6D
100
AcDbEntity
  8
0
  6
Continuous
 62
     7
100
AcDbLine
 10
689.897148847147
 20
-200.3689061304123
 30
0.0
 11
688.5981107414702
 21
-199.9939061304123
 31
0.0
  0
LINE
  5
1D4
330
6D
100
AcDbEntity
  8
0
  6
Continuous
 62
     7
100
AcDbLine
 10
688.8079183626056
 20
-199.5925921583309
 30
0.0
 11
691.2327894932021
 21
-200.2925921583309
 31
0.0
  0
LINE
  5
1D5
330
6D
100
AcDbEntity
  8
0
  6
Continuous
 62
     7
100
AcDbLine
 10
688.5981107414702
 20
-207.4417246029585
 30
0.0
 11
688.5981107414702
 21
-199.9939061304123
 31
0.0
  0
LINE
  5
1D6
330
6D
100
AcDbEntity
  8
0
  6
Continuous
 62
     7
100
AcDbLine
 10
689.897148847147
 20
-207.8167246029585
 30
0.0
 11
688.5981107414702
 21
-207.4417246029585
 31
0.0
  0
LINE
  5
1D7
330
6D
100
AcDbEntity
  8
0
  6
Continuous
 62
     7
100
AcDbLine
 10
705.3566249025565
 20
-197.9814851082624
 30
0.0
 11
700.0491886339933
 21
-202.5778597458051
 31
0.0
  0
LINE
  5
1D8
330
6D
100
AcDbEntity
  8
0
  6
Continuous
 62
     7
100
AcDbLine
 10
699.3961869528237
 20
-202.3893543976028
 30
0.0
 11
710.394709580886
 21
-205.5643543976028
 31
0.0
  0
LINE
  5
1D9
330
6D
100
AcDbEntity
  8
0
  6
Continuous
 62
     7
100
AcDbLine
 10
710.394709580886
 20
-206.8633925032794
 30
0.0
 11
710.394709580886
 21
-205.5643543976028
 31
0.0
  0
LINE
  5
1DA
330
6D
100
AcDbEntity
  8
0
  6
Continuous
 62
     7
100
AcDbLine
 10
707.894709580886
 20
-207.7294179070639
 30
0.0
 11
710.394709580886
 21
-205.5643543976028
 31
0.0
  0
LINE
  5
1DB
330
6D
100
AcDbEntity
  8
0
  6
Continuous
 62
     7
100
AcDbLine
 10
707.894709580886
 20
-207.7294179070639
 30
0.0
 11
696.8961869528237
 21
-204.5544179070639
 31
0.0
  0
LINE
  5
1DC
330
6D
100
AcDbEntity
  8
0
  6
Continuous
 62
     7
100
AcDbLine
 10
691.4872927577206
 20
-200.6780996487956
 30
0.0
 11
689.9465447773765
 21
-207.7408310750448
 31
0.0
  0
LINE
  5
1DD
330
6D
100
AcDbEntity
  8
0
  6
Continuous
 62
     7
100
AcDbLine
 10
689.9387292715106
 20
-207.7807148991595
 30
0.0
 11
689.897148847147
 21
-207.8167246029585
 31
0.0
  0
LINE
  5
1DE
330
6D
100
AcDbEntity
  8
0
  6
Continuous
 62
     7
100
AcDbLine
 10
689.897148847147
 20
-200.3689061304123
 30
0.0
 11
689.897148847147
 21
-207.8167246029585
 31
0.0
  0
LINE
  5
1DF
330
6D
100
AcDbEntity
  8
0
  6
Continuous
 62
     7
100
AcDbLine
 10
716.794709580886
 20
-201.320829919059
 30
0.0
 11
716.794709580886
 21
-200.0217918133824
 31
0.0
  0
LINE
  5
1E0
330
6D
100
AcDbEntity
  8
0
  6
Continuous
 62
     7
100
AcDbLine
 10
719.294709580886
 20
-199.155766409598
 30
0.0
 11
719.294709580886
 21
-197.8567283039213
 31
0.0
  0
LINE
  5
1E1
330
6D
100
AcDbEntity
  8
0
  6
Continuous
 62
     7
100
AcDbLine
 10
716.794709580886
 20
-200.0217918133824
 30
0.0
 11
719.294709580886
 21
-197.8567283039213
 31
0.0
  0
LINE
  5
1E2
330
6D
100
AcDbEntity
  8
0
  6
Continuous
 62
     2
100
AcDbLine
 10
705.7961869528236
 20
-196.8467918133824
 30
0.0
 11
708.2961869528236
 21
-194.6817283039213
 31
0.0
  0
LINE
  5
1E3
330
6D
100
AcDbEntity
  8
0
  6
Continuous
 62
     7
100
AcDbLine
 10
716.794709580886
 20
-200.0217918133824
 30
0.0
 11
705.7961869528236
 21
-196.8467918133824
 31
0.0
  0
LINE
  5
1E4
330
6D
100
AcDbEntity
  8
0
  6
Continuous
 62
     7
100
AcDbLine
 10
708.2961869528236
 20
-194.6817283039213
 30
0.0
 11
719.294709580886
 21
-197.8567283039213
 31
0.0
  0
LINE
  5
1E5
330
6D
100
AcDbEntity
  8
0
  6
Continuous
 62
     7
100
AcDbLine
 10
705.7961869528236
 20
-198.145829919059
 30
0.0
 11
716.794709580886
 21
-201.320829919059
 31
0.0
  0
LINE
  5
1E6
330
6D
100
AcDbEntity
  8
0
  6
Continuous
 62
     7
100
AcDbLine
 10
716.794709580886
 20
-201.320829919059
 30
0.0
 11
719.294709580886
 21
-199.155766409598
 31
0.0
  0
LINE
  5
1E7
330
6D
100
AcDbEntity
  8
0
  6
Continuous
 62
     2
100
AcDbLine
 10
711.6838614322824
 20
-181.8886240014367
 30
0.0
 11
691.2327894932021
 21
-199.5997718353033
 31
0.0
  0
LINE
  5
1E8
330
6D
100
AcDbEntity
  8
0
  6
Continuous
 62
     7
100
AcDbLine
 10
689.897148847147
 20
-200.3689061304123
 30
0.0
 11
690.297148847147
 21
-200.0224959688986
 31
0.0
  0
LINE
  5
1E9
330
6D
100
AcDbEntity
  8
0
  6
Continuous
 62
     2
100
AcDbLine
 10
709.9318254230875
 20
-193.5170476323347
 30
0.0
 11
708.5142727566308
 21
-194.7446842526887
 31
0.0
  0
LINE
  5
1EA
330
6D
100
AcDbEntity
  8
0
  6
Continuous
 62
     7
100
AcDbLine
 10
709.9538644718613
 20
-194.0001588539615
 30
0.0
 11
708.9491886339932
 21
-194.8702336521236
 31
0.0
  0
LINE
  5
1EB
330
6D
100
AcDbEntity
  8
0
  6
Continuous
 62
     7
100
AcDbLine
 10
711.1544860739812
 20
-190.7387475898757
 30
0.0
 11
711.4114500730968
 21
-191.0855917441372
 31
0.0
  0
LINE
  5
1EC
330
6D
100
AcDbEntity
  8
0
  6
Continuous
 62
     7
100
AcDbLine
 10
709.2589903016859
 20
-181.1886240014367
 30
0.0
 11
711.6838614322824
 21
-181.8886240014367
 31
0.0
  0
LINE
  5
1ED
330
6D
100
AcDbEntity
  8
0
  6
Continuous
 62
     2
100
AcDbLine
 10
709.2589903016859
 20
-181.1886240014367
 30
0.0
 11
688.8079183626056
 21
-198.8997718353033
 31
0.0
  0
LINE
  5
1EE
330
6D
100
AcDbEntity
  8
0
  6
Continuous
 62
     2
100
AcDbLine
 10
712.6170400688509
 20
-183.302151466474
 30
0.0
 11
692.1659681297706
 21
-201.0132993003405
 31
0.0
  0
LINE
  5
1EF
330
6D
100
AcDbEntity
  8
0
  6
Continuous
 62
     7
100
AcDbLine
 10
711.4212117232715
 20
-191.5527713732433
 30
0.0
 11
690.9701397841912
 21
-209.2639192071099
 31
0.0
  0
LINE
  5
1F0
330
6D
100
AcDbEntity
  8
0
  6
Continuous
 62
     2
100
AcDbLine
 10
696.8961869528237
 20
-204.5544179070639
 30
0.0
 11
699.3961869528237
 21
-202.3893543976028
 31
0.0
  0
LINE
  5
1F1
330
6D
100
AcDbEntity
  8
0
  6
Continuous
 62
     7
100
AcDbLine
 10
690.6161762669846
 20
-208.117487547271
 30
0.0
 11
692.1659681297706
 21
-201.0132993003405
 31
0.0
  0
LINE
  5
1F2
330
6D
100
AcDbEntity
  8
0
  6
Continuous
 62
     2
100
AcDbLine
 10
688.7708029884419
 20
-199.5845426363629
 30
0.0
 11
688.5481107414703
 21
-199.7773997794662
 31
0.0
  0
LINE
  5
1F3
330
6D
100
AcDbEntity
  8
0
  6
Continuous
 62
     7
100
AcDbLine
 10
690.2300678481046
 20
-208.821156673576
 30
0.0
 11
690.4561784977994
 21
-209.1263556794012
 31
0.0
  0
LINE
  5
1F4
330
6D
100
AcDbEntity
  8
0
  6
Continuous
 62
     2
100
AcDbLine
 10
696.0980685852431
 20
-205.4974324836847
 30
0.0
 11
689.4807534840073
 21
-211.2281954662012
 31
0.0
  0
LINE
  5
1F5
330
6D
100
AcDbEntity
  8
0
  6
Continuous
 62
     7
100
AcDbLine
 10
690.9603781340167
 20
-208.7967395780038
 30
0.0
 11
690.7034141349009
 21
-208.4498954237423
 31
0.0
  0
LINE
  5
1F6
330
6D
100
AcDbEntity
  8
0
  6
Continuous
 62
     7
100
AcDbLine
 10
688.5481107414703
 20
-208.7717235880301
 30
0.0
 11
688.5481107414703
 21
-199.7773997794662
 31
0.0
  0
LINE
  5
1F7
330
6D
100
AcDbEntity
  8
0
  6
Continuous
 62
     2
100
AcDbLine
 10
689.7124236495496
 20
-207.7633990316792
 30
0.0
 11
688.5481107414703
 21
-208.7717235880301
 31
0.0
  0
LINE
  5
1F8
330
6D
100
AcDbEntity
  8
0
  6
Continuous
 62
     2
100
AcDbLine
 10
704.9980685852431
 20
-197.7898063900032
 30
0.0
 11
699.6142727566307
 21
-202.4523103463702
 31
0.0
  0
LINE
  5
1F9
330
6D
100
AcDbEntity
  8
0
  6
Continuous
 62
     2
100
AcDbLine
 10
711.1544860739812
 20
-190.7387475898757
 30
0.0
 11
690.7034141349009
 21
-208.4498954237423
 31
0.0
  0
LINE
  5
1FA
330
6D
100
AcDbEntity
  8
0
  6
Continuous
 62
     7
100
AcDbLine
 10
708.5388712639071
 20
-181.3097301049793
 30
0.0
 11
688.0877993248268
 21
-199.0208779388459
 31
0.0
  0
LINE
  5
1FB
330
6D
100
AcDbEntity
  8
0
  6
Continuous
 62
     7
100
AcDbLine
 10
687.8552904184427
 20
-199.5773997794662
 30
0.0
 11
687.8552904184428
 21
-208.5717235880302
 31
0.0
  0
LINE
  5
1FC
330
6D
100
AcDbEntity
  8
0
  6
Continuous
 62
     7
100
AcDbLine
 10
696.4566249025477
 20
-205.6891112019516
 30
0.0
 11
689.502792532781
 21
-211.7113066878281
 31
0.0
  0
LINE
  5
1FD
330
6D
100
AcDbEntity
  8
0
  6
Continuous
 62
     2
100
AcDbLine
 10
711.4114500730968
 20
-191.0855917441372
 30
0.0
 11
690.9603781340167
 21
-208.7967395780038
 31
0.0
  0
SPLINE
  5
1FE
330
6D
100
AcDbEntity
  8
0
  6
Continuous
 62
     7
100
AcDbSpline
210
0.0
220
0.0
230
1.0
 70
     8
 71
     3
 72
    11
 73
     7
 74
     5
 42
0.000000001
 43
0.0000000001
 44
0.00000001
 40
0.0
 40
0.0
 40
0.0
 40
0.0
 40
0.056142356981503
 40
0.1089108807814332
 40
0.1588614544872794
 40
0.2071930616845909
 40
0.2071930616845909
 40
0.2071930616845909
 40
0.2071930616845909
 10
688.8079183626056
 20
-199.5925921583309
 30
0.0
 10
688.789600178299
 20
-199.5883679181518
 30
0.0
 10
688.7540646250285
 20
-199.5801733047554
 30
0.0
 10
688.7006452603973
 20
-199.5828573954708
 30
0.0
 10
688.6513029212704
 20
-199.5966361665749
 30
0.0
 10
688.6246360542724
 20
-199.6160661361294
 30
0.0
 10
688.6115222613932
 20
-199.6256210956607
 30
0.0
 11
688.8079183626056
 21
-199.5925921583309
 31
0.0
 11
688.7526748979204
 21
-199.5825859653624
 31
0.0
 11
688.6999580059296
 21
-199.5849197698795
 31
0.0
 11
688.6521787397407
 21
-199.5994869185378
 31
0.0
 11
688.6115222613932
 21
-199.6256210956607
 31
0.0
  0
SPLINE
  5
1FF
330
6D
100
AcDbEntity
  8
0
  6
Continuous
 62
     7
100
AcDbSpline
210
0.0
220
0.0
230
1.0
 70
     8
 71
     3
 72
    13
 73
     9
 74
     7
 42
0.000000001
 43
0.0000000001
 44
0.00000001
 40
0.0
 40
0.0
 40
0.0
 40
0.0
 40
0.2760956418110596
 40
0.5754032258545444
 40
0.892193609791256
 40
1.216056166736344
 40
1.534866898566321
 40
1.837716520622978
 40
1.837716520622978
 40
1.837716520622978
 40
1.837716520622978
 10
692.1659681297706
 20
-201.0132993003405
 30
0.0
 10
692.1765248651737
 20
-200.9212035820852
 30
0.0
 10
692.1985258482184
 20
-200.7292694637496
 30
0.0
 10
692.1225382820337
 20
-200.4358203487802
 30
0.0
 10
691.9800568960896
 20
-200.1546366825791
 30
0.0
 10
691.7726435230925
 20
-199.9083496262792
 30
0.0
 10
691.5224211998643
 20
-199.7095657747511
 30
0.0
 10
691.3276666248572
 20
-199.6357379685189
 30
0.0
 10
691.2327894932021
 20
-199.5997718353033
 30
0.0
 11
692.1659681297706
 21
-201.0132993003405
 31
0.0
 11
692.1812897516156
 21
-200.7376291124241
 31
0.0
 11
692.1143703754647
 21
-200.4458983646235
 31
0.0
 11
691.9710104746797
 21
-200.1634021909709
 31
0.0
 11
691.7636421250622
 21
-199.9146345794479
 31
0.0
 11
691.5102443588601
 21
-199.7211666091304
 31
0.0
 11
691.2327894932021
 21
-199.5997718353033
 31
0.0
  0
SPLINE
  5
200
330
6D
100
AcDbEntity
  8
0
  6
Continuous
 62
     7
100
AcDbSpline
210
0.0
220
0.0
230
1.0
 70
     8
 71
     3
 72
    13
 73
     9
 74
     7
 42
0.000000001
 43
0.0000000001
 44
0.00000001
 40
0.0
 40
0.0
 40
0.0
 40
0.0
 40
0.0752988098558777
 40
0.1569281482240459
 40
0.2433255234497422
 40
0.3316516740247287
 40
0.4186000546058396
 40
0.5011954060638105
 40
0.5011954060638105
 40
0.5011954060638105
 40
0.5011954060638105
 10
691.4872927577206
 20
-200.6780996487956
 30
0.0
 10
691.4901718673169
 20
-200.652982635242
 30
0.0
 10
691.4961721245317
 20
-200.6006369674649
 30
0.0
 10
691.4754482484999
 20
-200.5206053929197
 30
0.0
 10
691.4365896886322
 20
-200.4439189403424
 30
0.0
 10
691.3800224071263
 20
-200.3767497429545
 30
0.0
 10
691.3117799540535
 20
-200.3225359697723
 30
0.0
 10
691.2586650745586
 20
-200.3024011037519
 30
0.0
 10
691.2327894932021
 20
-200.2925921583309
 30
0.0
 11
691.4872927577206
 21
-200.6780996487956
 31
0.0
 11
691.4914713818603
 21
-200.6029168702729
 31
0.0
 11
691.4732206429101
 21
-200.5233539390545
 31
0.0
 11
691.4341224881505
 21
-200.4463095280584
 31
0.0
 11
691.3775674837093
 21
-200.3784638158249
 31
0.0
 11
691.3084590020178
 21
-200.3256998239201
 31
0.0
 11
691.2327894932021
 21
-200.2925921583309
 31
0.0
  0
SPLINE
  5
201
330
6D
100
AcDbEntity
  8
0
  6
Continuous
 62
     7
100
AcDbSpline
210
0.0
220
0.0
230
1.0
 70
     8
 71
     3
 72
     9
 73
     5
 74
     3
 42
0.000000001
 43
0.0000000001
 44
0.00000001
 40
0.0
 40
0.0
 40
0.0
 40
0.0
 40
0.1813310955810721
 40
0.3573463714383799
 40
0.3573463714383799
 40
0.3573463714383799
 40
0.3573463714383799
 10
707.966934780169
 20
-194.5442629576717
 30
0.0
 10
708.0207025105607
 20
-194.5721335697218
 30
0.0
 10
708.1266617492383
 20
-194.6270577334633
 30
0.0
 10
708.2402417477601
 20
-194.6636864137513
 30
0.0
 10
708.2961869528236
 20
-194.6817283039213
 30
0.0
 11
707.966934780169
 21
-194.5442629576717
 31
0.0
 11
708.1302002698648
 21
-194.6231638214198
 31
0.0
 11
708.2961869528236
 21
-194.6817283039213
 31
0.0
  0
SPLINE
  5
202
330
6D
100
AcDbEntity
  8
0
  6
Continuous
 62
     7
100
AcDbSpline
210
0.0
220
0.0
230
1.0
 70
     8
 71
     3
 72
     9
 73
     5
 74
     3
 42
0.000000001
 43
0.0000000001
 44
0.00000001
 40
0.0
 40
0.0
 40
0.0
 40
0.0
 40
0.716059404741293
 40
1.399071647696204
 40
1.399071647696204
 40
1.399071647696204
 40
1.399071647696204
 10
704.5710618883656
 20
-197.485175150005
 30
0.0
 10
704.7630991635483
 20
-197.6295423107843
 30
0.0
 10
705.1383109302483
 20
-197.9116138651735
 30
0.0
 10
705.5803755796404
 20
-198.0689970782906
 30
0.0
 10
705.7961869528236
 20
-198.145829919059
 30
0.0
 11
704.5710618883656
 21
-197.485175150005
 31
0.0
 11
705.164685823874
 21
-197.885614528386
 31
0.0
 11
705.7961869528236
 21
-198.145829919059
 31
0.0
  0
SPLINE
  5
203
330
6D
100
AcDbEntity
  8
0
  6
Continuous
 62
     7
100
AcDbSpline
210
0.0
220
0.0
230
1.0
 70
     8
 71
     3
 72
    11
 73
     7
 74
     5
 42
0.000000001
 43
0.0000000001
 44
0.00000001
 40
0.0
 40
0.0
 40
0.0
 40
0.0
 40
0.2058553098990555
 40
0.3993399032464605
 40
0.5824920144165083
 40
0.7597079127488644
 40
0.7597079127488644
 40
0.7597079127488644
 40
0.7597079127488644
 10
709.2589903016859
 20
-181.1886240014367
 30
0.0
 10
709.19182362558
 20
-181.1731351207076
 30
0.0
 10
709.0615266008015
 20
-181.1430881660165
 30
0.0
 10
708.8656555922695
 20
-181.1529298501682
 30
0.0
 10
708.6847336675833
 20
-181.2034519947097
 30
0.0
 10
708.5869551725617
 20
-181.2746952523216
 30
0.0
 10
708.5388712639071
 20
-181.3097301049793
 30
0.0
 11
709.2589903016859
 21
-181.1886240014367
 31
0.0
 11
709.0564309311734
 21
-181.1519346272192
 31
0.0
 11
708.8631356605406
 21
-181.1604919104487
 31
0.0
 11
708.6879450178478
 21
-181.213904788862
 31
0.0
 11
708.5388712639071
 21
-181.3097301049793
 31
0.0
  0
SPLINE
  5
204
330
6D
100
AcDbEntity
  8
0
  6
Continuous
 62
     7
100
AcDbSpline
210
0.0
220
0.0
230
1.0
 70
     8
 71
     3
 72
     9
 73
     5
 74
     3
 42
0.000000001
 43
0.0000000001
 44
0.00000001
 40
0.0
 40
0.0
 40
0.0
 40
0.0
 40
0.2556179374588523
 40
0.5122561612657504
 40
0.5122561612657504
 40
0.5122561612657504
 40
0.5122561612657504
 10
709.6342192810109
 20
-193.1003522246088
 30
0.0
 10
709.6808345325768
 20
-193.1717247890421
 30
0.0
 10
709.7742511146035
 20
-193.3147547865801
 30
0.0
 10
709.8792309503423
 20
-193.4495272100336
 30
0.0
 10
709.9318254230875
 20
-193.5170476323347
 30
0.0
 11
709.6342192810109
 21
-193.1003522246088
 31
0.0
 11
709.7769443533023
 21
-193.3124137341572
 31
0.0
 11
709.9318254230875
 21
-193.5170476323347
 31
0.0
  0
SPLINE
  5
205
330
6D
100
AcDbEntity
  8
0
  6
Continuous
 62
     7
100
AcDbSpline
210
0.0
220
0.0
230
1.0
 70
     8
 71
     3
 72
    13
 73
     9
 74
     7
 42
0.000000001
 43
0.0000000001
 44
0.00000001
 40
0.0
 40
0.0
 40
0.0
 40
0.0
 40
0.0762577308334017
 40
0.15599782799641
 40
0.2414876487051622
 40
0.3332843717830712
 40
0.4304028886450534
 40
0.5307623817972873
 40
0.5307623817972873
 40
0.5307623817972873
 40
0.5307623817972873
 10
709.9538644718613
 20
-194.0001588539615
 30
0.0
 10
709.9714736084929
 20
-193.9814991967057
 30
0.0
 10
710.0074960052125
 20
-193.9433277661452
 30
0.0
 10
710.0350696639987
 20
-193.8655282694072
 30
0.0
 10
710.0416879643326
 20
-193.7794047820194
 30
0.0
 10
710.025575967968
 20
-193.6885619780518
 30
0.0
 10
709.9898086607711
 20
-193.5980218085328
 30
0.0
 10
709.9513634915563
 20
-193.5443327338563
 30
0.0
 10
709.9318254230875
 20
-193.5170476323347
 30
0.0
 11
709.9538644718613
 21
-194.0001588539615
 31
0.0
 11
710.0023403220556
 21
-193.9412917658258
 31
0.0
 11
710.0310100206348
 21
-193.8668838884709
 31
0.0
 11
710.0380435411304
 21
-193.7816838910527
 31
0.0
 11
710.0229922817955
 21
-193.6911294970226
 31
0.0
 11
709.9868165542139
 21
-193.6010000171528
 31
0.0
 11
709.9318254230875
 21
-193.5170476323347
 31
0.0
  0
SPLINE
  5
206
330
6D
100
AcDbEntity
  8
0
  6
Continuous
 62
     7
100
AcDbSpline
210
0.0
220
0.0
230
1.0
 70
     8
 71
     3
 72
    11
 73
     7
 74
     5
 42
0.000000001
 43
0.0000000001
 44
0.00000001
 40
0.0
 40
0.0
 40
0.0
 40
0.0
 40
0.1110054783088672
 40
0.231717630942814
 40
0.3655438357715293
 40
0.5091182748686032
 40
0.5091182748686032
 40
0.5091182748686032
 40
0.5091182748686032
 10
711.4212117232715
 20
-191.5527713732433
 30
0.0
 10
711.4456906132231
 20
-191.5240803678359
 30
0.0
 10
711.4967888936892
 20
-191.464189515627
 30
0.0
 10
711.5123738512527
 20
-191.3378030676498
 30
0.0
 10
711.4867112780247
 20
-191.2054409983336
 30
0.0
 10
711.437118069937
 20
-191.1264665826261
 30
0.0
 10
711.4114500730968
 20
-191.0855917441372
 30
0.0
 11
711.4212117232715
 21
-191.5527713732433
 31
0.0
 11
711.4851888923738
 21
-191.4620567723383
 31
0.0
 11
711.505683900822
 21
-191.3430972009374
 31
0.0
 11
711.479959118708
 21
-191.2117667416739
 31
0.0
 11
711.4114500730968
 21
-191.0855917441372
 31
0.0
  0
SPLINE
  5
207
330
6D
100
AcDbEntity
  8
0
  6
Continuous
 62
     7
100
AcDbSpline
210
0.0
220
0.0
230
1.0
 70
     8
 71
     3
 72
    11
 73
     7
 74
     5
 42
0.000000001
 43
0.0000000001
 44
0.00000001
 40
0.0
 40
0.0
 40
0.0
 40
0.0
 40
0.0808166113634898
 40
0.1672892356605099
 40
0.2586531862664582
 40
0.3532312648428911
 40
0.3532312648428911
 40
0.3532312648428911
 40
0.3532312648428911
 10
711.0672482060648
 20
-190.4063397134044
 30
0.0
 10
711.0636240892397
 20
-190.4331782866095
 30
0.0
 10
711.056122233963
 20
-190.4887337523782
 30
0.0
 10
711.071279283106
 20
-190.574706347569
 30
0.0
 10
711.1025142312797
 20
-190.6606272821814
 30
0.0
 10
711.1369636287387
 20
-190.7124091289602
 30
0.0
 10
711.1544860739812
 20
-190.7387475898757
 30
0.0
 11
711.0672482060648
 21
-190.4063397134044
 31
0.0
 11
711.0604145131715
 21
-190.4868668863001
 31
0.0
 11
711.0733497902663
 21
-190.5723665576932
 31
0.0
 11
711.105315539016
 21
-190.6579560590279
 31
0.0
 11
711.1544860739812
 21
-190.7387475898757
 31
0.0
  0
SPLINE
  5
208
330
6D
100
AcDbEntity
  8
0
  6
Continuous
 62
     7
100
AcDbSpline
210
0.0
220
0.0
230
1.0
 70
     8
 71
     3
 72
     9
 73
     5
 74
     3
 42
0.000000001
 43
0.0000000001
 44
0.00000001
 40
0.0
 40
0.0
 40
0.0
 40
0.0
 40
0.1813310955809698
 40
0.3573463714382775
 40
0.3573463714382775
 40
0.3573463714382775
 40
0.3573463714382775
 10
705.4669347801691
 20
-196.7093264671328
 30
0.0
 10
705.5207025105608
 20
-196.7371970791829
 30
0.0
 10
705.6266617492386
 20
-196.7921212429245
 30
0.0
 10
705.7402417477601
 20
-196.8287499232123
 30
0.0
 10
705.7961869528236
 20
-196.8467918133824
 30
0.0
 11
705.4669347801691
 21
-196.7093264671328
 31
0.0
 11
705.6302002698648
 21
-196.7882273308809
 31
0.0
 11
705.7961869528236
 21
-196.8467918133824
 31
0.0
  0
SPLINE
  5
209
330
6D
100
AcDbEntity
  8
0
  6
Continuous
 62
     7
100
AcDbSpline
210
0.0
220
0.0
230
1.0
 70
     8
 71
     3
 72
     9
 73
     5
 74
     3
 42
0.000000001
 43
0.0000000001
 44
0.00000001
 40
0.0
 40
0.0
 40
0.0
 40
0.0
 40
0.1813310955811621
 40
0.3573463714383721
 40
0.3573463714383721
 40
0.3573463714383721
 40
0.3573463714383721
 10
696.566934780169
 20
-204.4169525608143
 30
0.0
 10
696.6207025105606
 20
-204.4448231728643
 30
0.0
 10
696.7266617492387
 20
-204.4997473366059
 30
0.0
 10
696.8402417477604
 20
-204.5363760168939
 30
0.0
 10
696.8961869528237
 20
-204.5544179070639
 30
0.0
 11
696.566934780169
 21
-204.4169525608143
 31
0.0
 11
696.7302002698649
 21
-204.4958534245624
 31
0.0
 11
696.8961869528237
 21
-204.5544179070639
 31
0.0
  0
SPLINE
  5
20A
330
6D
100
AcDbEntity
  8
0
  6
Continuous
 62
     7
100
AcDbSpline
210
0.0
220
0.0
230
1.0
 70
     8
 71
     3
 72
     9
 73
     5
 74
     3
 42
0.000000001
 43
0.0000000001
 44
0.00000001
 40
0.0
 40
0.0
 40
0.0
 40
0.0
 40
0.18133109557298
 40
0.3573463714225784
 40
0.3573463714225784
 40
0.3573463714225784
 40
0.3573463714225784
 10
699.0669347801829
 20
-202.2518890513608
 30
0.0
 10
699.1207025105725
 20
-202.2797596634092
 30
0.0
 10
699.226661749246
 20
-202.3346838271473
 30
0.0
 10
699.3402417477628
 20
-202.3713125074336
 30
0.0
 10
699.3961869528237
 20
-202.3893543976028
 30
0.0
 11
699.0669347801829
 21
-202.2518890513608
 31
0.0
 11
699.230200269872
 21
-202.3307899151042
 31
0.0
 11
699.3961869528237
 21
-202.3893543976028
 31
0.0
  0
SPLINE
  5
20B
330
6D
100
AcDbEntity
  8
0
  6
Continuous
 62
     7
100
AcDbSpline
210
0.0
220
0.0
230
1.0
 70
     8
 71
     3
 72
     9
 73
     5
 74
     3
 42
0.000000001
 43
0.0000000001
 44
0.00000001
 40
0.0
 40
0.0
 40
0.0
 40
0.0
 40
0.7160594047431086
 40
1.3990716476997
 40
1.3990716476997
 40
1.3990716476997
 40
1.3990716476997
 10
695.6710618883629
 20
-205.1928012436843
 30
0.0
 10
695.8630991635459
 20
-205.3371684044641
 30
0.0
 10
696.2383109302466
 20
-205.6192399588544
 30
0.0
 10
696.6803755796401
 20
-205.7766231719718
 30
0.0
 10
696.8961869528237
 20
-205.8534560127405
 30
0.0
 11
695.6710618883629
 21
-205.1928012436843
 31
0.0
 11
696.2646858238726
 21
-205.5932406220667
 31
0.0
 11
696.8961869528237
 21
-205.8534560127405
 31
0.0
  0
SPLINE
  5
20C
330
6D
100
AcDbEntity
  8
0
  6
Continuous
 62
     7
100
AcDbSpline
210
0.0
220
0.0
230
1.0
 70
     8
 71
     3
 72
    11
 73
     7
 74
     5
 42
0.000000001
 43
0.0000000001
 44
0.00000001
 40
0.0
 40
0.0
 40
0.0
 40
0.0
 40
0.0808166113635181
 40
0.1672892356605382
 40
0.2586531862664202
 40
0.3532312648429365
 40
0.3532312648429365
 40
0.3532312648429365
 40
0.3532312648429365
 10
690.6161762669846
 20
-208.117487547271
 30
0.0
 10
690.6125521501596
 20
-208.1443261204761
 30
0.0
 10
690.6050502948826
 20
-208.1998815862449
 30
0.0
 10
690.6202073440261
 20
-208.2858541814357
 30
0.0
 10
690.6514422921991
 20
-208.3717751160481
 30
0.0
 10
690.6858916896585
 20
-208.4235569628267
 30
0.0
 10
690.7034141349009
 20
-208.4498954237423
 30
0.0
 11
690.6161762669846
 21
-208.117487547271
 31
0.0
 11
690.6093425740912
 21
-208.1980147201667
 31
0.0
 11
690.622277851186
 21
-208.2835143915599
 31
0.0
 11
690.6542435999356
 21
-208.3691038928945
 31
0.0
 11
690.7034141349009
 21
-208.4498954237423
 31
0.0
  0
SPLINE
  5
20D
330
6D
100
AcDbEntity
  8
0
  6
Continuous
 62
     7
100
AcDbSpline
210
0.0
220
0.0
230
1.0
 70
     8
 71
     3
 72
     9
 73
     5
 74
     3
 42
0.000000001
 43
0.0000000001
 44
0.00000001
 40
0.0
 40
0.0
 40
0.0
 40
0.0
 40
0.0808410949935476
 40
0.1684190793150467
 40
0.1684190793150467
 40
0.1684190793150467
 40
0.1684190793150467
 10
688.6115222613932
 20
-199.6256210956607
 30
0.0
 10
688.5932867713665
 20
-199.6464419752134
 30
0.0
 10
688.5552961541825
 20
-199.6898188510682
 30
0.0
 10
688.5505689038761
 20
-199.7474378667471
 30
0.0
 10
688.5481107414703
 20
-199.7773997794662
 30
0.0
 11
688.6115222613932
 21
-199.6256210956607
 31
0.0
 11
688.564479665903
 21
-199.691365123501
 31
0.0
 11
688.5481107414703
 21
-199.7773997794662
 31
0.0
  0
SPLINE
  5
20E
330
6D
100
AcDbEntity
  8
0
  6
Continuous
 62
     7
100
AcDbSpline
210
0.0
220
0.0
230
1.0
 70
     8
 71
     3
 72
    13
 73
     9
 74
     7
 42
0.000000001
 43
0.0000000001
 44
0.00000001
 40
0.0
 40
0.0
 40
0.0
 40
0.0
 40
0.1110782345454077
 40
0.2198083951444137
 40
0.3229936205415571
 40
0.4187481578781117
 40
0.507263077759216
 40
0.5912209744632801
 40
0.5912209744632801
 40
0.5912209744632801
 40
0.5912209744632801
 10
690.4561784977994
 20
-209.1263556794012
 30
0.0
 10
690.4800564252779
 20
-209.1548321204422
 30
0.0
 10
690.5273075369707
 20
-209.211183031758
 30
0.0
 10
690.6165900778133
 20
-209.2734408191347
 30
0.0
 10
690.7120150368897
 20
-209.313606930722
 30
0.0
 10
690.8078255663511
 20
-209.3264586307183
 30
0.0
 10
690.8989129195643
 20
-209.312886388071
 30
0.0
 10
690.9468194217967
 20
-209.2799515399349
 30
0.0
 10
690.9701397841912
 20
-209.2639192071099
 30
0.0
 11
690.4561784977994
 21
-209.1263556794012
 31
0.0
 11
690.5312620108933
 21
-209.2082143363133
 31
0.0
 11
690.6200046205573
 21
-209.2710394675871
 31
0.0
 11
690.7155588188078
 21
-209.3099828403264
 31
0.0
 11
690.81055123213
 21
-209.3220399315809
 31
0.0
 11
690.8976518150937
 21
-209.306279843029
 31
0.0
 11
690.9701397841912
 21
-209.2639192071099
 31
0.0
  0
SPLINE
  5
20F
330
6D
100
AcDbEntity
  8
0
  6
Continuous
 62
     7
100
AcDbSpline
210
0.0
220
0.0
230
1.0
 70
     8
 71
     3
 72
    11
 73
     7
 74
     5
 42
0.000000001
 43
0.0000000001
 44
0.00000001
 40
0.0
 40
0.0
 40
0.0
 40
0.0
 40
0.1110054783089327
 40
0.2317176309428322
 40
0.3655438357715753
 40
0.50911827486857
 40
0.50911827486857
 40
0.50911827486857
 40
0.50911827486857
 10
690.9701397841912
 20
-209.2639192071099
 30
0.0
 10
690.9946186741429
 20
-209.2352282017024
 30
0.0
 10
691.0457169546089
 20
-209.1753373494936
 30
0.0
 10
691.0613019121723
 20
-209.0489509015163
 30
0.0
 10
691.0356393389443
 20
-208.9165888322002
 30
0.0
 10
690.9860461308567
 20
-208.8376144164926
 30
0.0
 10
690.9603781340167
 20
-208.7967395780038
 30
0.0
 11
690.9701397841912
 21
-209.2639192071099
 31
0.0
 11
691.0341169532936
 21
-209.1732046062049
 31
0.0
 11
691.0546119617417
 21
-209.054245034804
 31
0.0
 11
691.0288871796278
 21
-208.9229145755405
 31
0.0
 11
690.9603781340167
 21
-208.7967395780038
 31
0.0
  0
SPLINE
  5
210
330
6D
100
AcDbEntity
  8
0
  6
Continuous
 62
     7
100
AcDbSpline
210
0.0
220
0.0
230
1.0
 70
     8
 71
     3
 72
    11
 73
     7
 74
     5
 42
0.000000001
 43
0.0000000001
 44
0.00000001
 40
0.0
 40
0.0
 40
0.0
 40
0.0
 40
0.2626539905625693
 40
0.543690025369653
 40
0.8406228692903088
 40
1.148001624881125
 40
1.148001624881125
 40
1.148001624881125
 40
1.148001624881125
 10
689.9465447773765
 20
-207.7408310750448
 30
0.0
 10
689.9347663975324
 20
-207.8280564391673
 30
0.0
 10
689.9103853337376
 20
-208.0086117035989
 30
0.0
 10
689.9596457617085
 20
-208.288022642115
 30
0.0
 10
690.0611593297588
 20
-208.567265688988
 30
0.0
 10
690.173119901027
 20
-208.73555667554
 30
0.0
 10
690.2300678481046
 20
-208.821156673576
 30
0.0
 11
689.9465447773765
 21
-207.7408310750448
 31
0.0
 11
689.9243352754733
 21
-208.0025443869558
 31
0.0
 11
689.9663749260312
 21
-208.2804183189834
 31
0.0
 11
690.0702636094677
 21
-208.5585841983208
 31
0.0
 11
690.2300678481046
 21
-208.821156673576
 31
0.0
  0
SPLINE
  5
211
330
6D
100
AcDbEntity
  8
0
  6
Continuous
 62
     7
100
AcDbSpline
210
0.0
220
0.0
230
1.0
 70
     8
 71
     3
 72
    11
 73
     7
 74
     5
 42
0.000000001
 43
0.0000000001
 44
0.00000001
 40
0.0
 40
0.0
 40
0.0
 40
0.0
 40
0.6274389264992025
 40
1.287473250174391
 40
1.972947282697447
 40
2.673576597908739
 40
2.673576597908739
 40
2.673576597908739
 40
2.673576597908739
 10
688.5481107414703
 20
-208.7717235880301
 30
0.0
 10
688.5606054655393
 20
-208.9811528392594
 30
0.0
 10
688.5862440284708
 20
-209.4108911713207
 30
0.0
 10
688.7794828810419
 20
-210.044557842668
 30
0.0
 10
689.0684414176276
 20
-210.6659903646809
 30
0.0
 10
689.3423179601268
 20
-211.0394327288751
 30
0.0
 10
689.4807534840073
 20
-211.2281954662012
 30
0.0
 11
688.5481107414703
 21
-208.7717235880301
 31
0.0
 11
688.6094548123555
 21
-209.3961565411123
 31
0.0
 11
688.7910033808608
 21
-210.0307315392501
 31
0.0
 11
689.0854086254722
 21
-210.6497632051701
 31
0.0
 11
689.4807534840073
 21
-211.2281954662012
 31
0.0
  0
SPLINE
  5
212
330
6D
100
AcDbEntity
  8
0
  6
Continuous
 62
     7
100
AcDbSpline
210
0.0
220
0.0
230
1.0
 70
     8
 71
     3
 72
    11
 73
     7
 74
     5
 42
0.000000001
 43
0.0000000001
 44
0.00000001
 40
0.0
 40
0.0
 40
0.0
 40
0.0
 40
0.7708535385329037
 40
1.581752850919716
 40
2.423906662672464
 40
3.284679821432038
 40
3.284679821432038
 40
3.284679821432038
 40
3.284679821432038
 10
687.8552904184428
 20
-208.5717235880302
 30
0.0
 10
687.8706410794471
 20
-208.8290223824851
 30
0.0
 10
687.9021398819259
 20
-209.3569866196239
 30
0.0
 10
688.1395476169093
 20
-210.1354913872895
 30
0.0
 10
688.4945538176489
 20
-210.8989656296573
 30
0.0
 10
688.8310307156353
 20
-211.3577662467632
 30
0.0
 10
689.0011086449883
 20
-211.5896747526403
 30
0.0
 11
687.8552904184428
 21
-208.5717235880302
 31
0.0
 11
687.9306559912447
 21
-209.3388840732454
 31
0.0
 11
688.1537013754084
 21
-210.1185047852433
 31
0.0
 11
688.5153992473595
 21
-210.8790294033735
 31
0.0
 11
689.0011086449883
 21
-211.5896747526403
 31
0.0
  0
SPLINE
  5
213
330
6D
100
AcDbEntity
  8
0
  6
Continuous
 62
     7
100
AcDbSpline
210
0.0
220
0.0
230
1.0
 70
     8
 71
     3
 72
    11
 73
     7
 74
     5
 42
0.000000001
 43
0.0000000001
 44
0.00000001
 40
0.0
 40
0.0
 40
0.0
 40
0.0
 40
0.2058553098991775
 40
0.399339903246469
 40
0.5824920144165251
 40
0.7597079127488812
 40
0.7597079127488812
 40
0.7597079127488812
 40
0.7597079127488812
 10
688.8079183626056
 20
-198.8997718353033
 30
0.0
 10
688.7407516864996
 20
-198.8842829545742
 30
0.0
 10
688.6104546617212
 20
-198.8542359998831
 30
0.0
 10
688.414583653189
 20
-198.8640776840348
 30
0.0
 10
688.2336617285029
 20
-198.9145998285762
 30
0.0
 10
688.1358832334814
 20
-198.9858430861882
 30
0.0
 10
688.0877993248268
 20
-199.0208779388459
 30
0.0
 11
688.8079183626056
 21
-198.8997718353033
 31
0.0
 11
688.605358992093
 21
-198.8630824610858
 31
0.0
 11
688.4120637214603
 21
-198.8716397443152
 31
0.0
 11
688.2368730787675
 21
-198.9250526227286
 31
0.0
 11
688.0877993248268
 21
-199.0208779388459
 31
0.0
  0
SPLINE
  5
214
330
6D
100
AcDbEntity
  8
0
  6
Continuous
 62
     7
100
AcDbSpline
210
0.0
220
0.0
230
1.0
 70
     8
 71
     3
 72
    11
 73
     7
 74
     5
 42
0.000000001
 43
0.0000000001
 44
0.00000001
 40
0.0
 40
0.0
 40
0.0
 40
0.0
 40
0.1474635914919621
 40
0.2984196351967358
 40
0.4557118552574217
 40
0.6211166401220307
 40
0.6211166401220307
 40
0.6211166401220307
 40
0.6211166401220307
 10
688.0877993248268
 20
-199.0208779388459
 30
0.0
 10
688.0527884773219
 20
-199.0557317907476
 30
0.0
 10
687.9819376144081
 20
-199.1262649651733
 30
0.0
 10
687.9098780935324
 20
-199.2621074465333
 30
0.0
 10
687.863353995463
 20
-199.4143159992455
 30
0.0
 10
687.8580229464491
 20
-199.5221349998476
 30
0.0
 10
687.8552904184427
 20
-199.5773997794662
 30
0.0
 11
688.0877993248268
 21
-199.0208779388459
 31
0.0
 11
687.9885449288619
 21
-199.129937904744
 31
0.0
 11
687.9153082801755
 21
-199.2619383635858
 31
0.0
 11
687.8704149722481
 21
-199.4126879374609
 31
0.0
 11
687.8552904184427
 21
-199.5773997794662
 31
0.0
  0
SPLINE
  5
215
330
6D
100
AcDbEntity
  8
0
  6
Continuous
 62
     7
100
AcDbSpline
210
0.0
220
0.0
230
1.0
 70
     8
 71
     3
 72
    13
 73
     9
 74
     7
 42
0.000000001
 43
0.0000000001
 44
0.00000001
 40
0.0
 40
0.0
 40
0.0
 40
0.0
 40
0.1076212529560512
 40
0.2125301501653852
 40
0.3119246059207736
 40
0.4042490558206521
 40
0.4898412831997444
 40
0.5712510847168438
 40
0.5712510847168438
 40
0.5712510847168438
 40
0.5712510847168438
 10
689.0011086449883
 20
-211.5896747526403
 30
0.0
 10
689.0252087555731
 20
-211.6164168722524
 30
0.0
 10
689.0728015967387
 20
-211.6692271255787
 30
0.0
 10
689.1606954463773
 20
-211.726787794038
 30
0.0
 10
689.2536411658973
 20
-211.7631084175487
 30
0.0
 10
689.3462992392994
 20
-211.7734890547914
 30
0.0
 10
689.4340073420299
 20
-211.7589607646314
 30
0.0
 10
689.4802501758113
 20
-211.726923938889
 30
0.0
 10
689.502792532781
 20
-211.7113066878281
 30
0.0
 11
689.0011086449883
 21
-211.5896747526403
 31
0.0
 11
689.0765613572978
 21
-211.6664160178177
 31
0.0
 11
689.1639495502845
 21
-211.7244606602458
 31
0.0
 11
689.2569277460859
 21
-211.7595934551317
 31
0.0
 11
689.3487443648106
 21
-211.7692636755516
 31
0.0
 11
689.432732134514
 21
-211.7527686831997
 31
0.0
 11
689.502792532781
 21
-211.7113066878281
 31
0.0
  0
SPLINE
  5
216
330
6D
100
AcDbEntity
  8
0
  6
Continuous
 62
     7
100
AcDbSpline
210
0.0
220
0.0
230
1.0
 70
     8
 71
     3
 72
    13
 73
     9
 74
     7
 42
0.000000001
 43
0.0000000001
 44
0.00000001
 40
0.0
 40
0.0
 40
0.0
 40
0.0
 40
0.076257730833474
 40
0.1559978279964148
 40
0.2414876487052237
 40
0.3332843717831047
 40
0.4304028886450868
 40
0.5307623817973536
 40
0.5307623817973536
 40
0.5307623817973536
 40
0.5307623817973536
 10
689.502792532781
 20
-211.7113066878281
 30
0.0
 10
689.5204016694128
 20
-211.6926470305723
 30
0.0
 10
689.5564240661324
 20
-211.6544756000119
 30
0.0
 10
689.5839977249182
 20
-211.5766761032738
 30
0.0
 10
689.5906160252524
 20
-211.490552615886
 30
0.0
 10
689.5745040288875
 20
-211.3997098119184
 30
0.0
 10
689.5387367216912
 20
-211.3091696423994
 30
0.0
 10
689.5002915524759
 20
-211.2554805677228
 30
0.0
 10
689.4807534840073
 20
-211.2281954662012
 30
0.0
 11
689.502792532781
 21
-211.7113066878281
 31
0.0
 11
689.5512683829754
 21
-211.6524395996924
 31
0.0
 11
689.5799380815545
 21
-211.5780317223375
 31
0.0
 11
689.5869716020501
 21
-211.4928317249193
 31
0.0
 11
689.5719203427152
 21
-211.4022773308893
 31
0.0
 11
689.5357446151336
 21
-211.3121478510194
 31
0.0
 11
689.4807534840073
 21
-211.2281954662012
 31
0.0
  0
SPLINE
  5
217
330
6D
100
AcDbEntity
  8
0
  6
Continuous
 62
     7
100
AcDbSpline
210
0.0
220
0.0
230
1.0
 70
     8
 71
     3
 72
    13
 73
     9
 74
     7
 42
0.000000001
 43
0.0000000001
 44
0.00000001
 40
0.0
 40
0.0
 40
0.0
 40
0.0
 40
0.276095641811088
 40
0.575403225854656
 40
0.8921936097913675
 40
1.216056166736434
 40
1.534866898566393
 40
1.837716520623062
 40
1.837716520623062
 40
1.837716520623062
 40
1.837716520623062
 10
712.6170400688509
 20
-183.302151466474
 30
0.0
 10
712.6275968042542
 20
-183.2100557482187
 30
0.0
 10
712.6495977872985
 20
-183.018121629883
 30
0.0
 10
712.573610221114
 20
-182.7246725149136
 30
0.0
 10
712.4311288351701
 20
-182.4434888487124
 30
0.0
 10
712.2237154621724
 20
-182.1972017924127
 30
0.0
 10
711.9734931389451
 20
-181.9984179408845
 30
0.0
 10
711.778738563937
 20
-181.9245901346522
 30
0.0
 10
711.6838614322824
 20
-181.8886240014367
 30
0.0
 11
712.6170400688509
 21
-183.302151466474
 31
0.0
 11
712.6323616906959
 21
-183.0264812785576
 31
0.0
 11
712.565442314545
 21
-182.7347505307569
 31
0.0
 11
712.42208241376
 21
-182.4522543571042
 31
0.0
 11
712.2147140641425
 21
-182.2034867455814
 31
0.0
 11
711.9613162979404
 21
-182.0100187752638
 31
0.0
 11
711.6838614322824
 21
-181.8886240014367
 31
0.0
  0
ENDBLK
  5
6F
330
6D
100
AcDbEntity
  8
0
100
AcDbBlockEnd
  0
BLOCK
  5
73
330
70
100
AcDbEntity
  8
0
100
AcDbBlockBegin
  2
a1
 70
     0
 10
714.1169296338733
 20
-186.2619988927219
 30
0.0
  3
a1
  1

  0
INSERT
  5
71
330
70
100
AcDbEntity
  8
0
100
AcDbBlockReference
  2
3009299_eb56_18-select_1_1
 10
725.9146484206001
 20
-176.0505580237308
 30
0.0
  0
INSERT
  5
72
330
70
100
AcDbEntity
  8
0
100
AcDbBlockReference
  2
3009299_eb56_18-select_1_2
 10
703.5669296338733
 20
-196.4589838590462
 30
0.0
  0
ENDBLK
  5
74
330
70
100
AcDbEntity
  8
0
100
AcDbBlockEnd
  0
BLOCK
  5
77
330
75
100
AcDbEntity
  8
0
100
AcDbBlockBegin
  2
Gen1
 70
     0
 10
669.1169296338733
 20
-167.2619988927219
 30
0.0
  3
Gen1
  1

  0
INSERT
  5
76
330
75
100
AcDbEntity
  8
0
100
AcDbBlockReference
  2
a1
 10
714.1169296338733
 20
-186.2619988927219
 30
0.0
  0
ENDBLK
  5
78
330
75
100
AcDbEntity
  8
0
100
AcDbBlockEnd
  0
BLOCK
  5
7B
330
79
100
AcDbEntity
  8
0
100
AcDbBlockBegin
  2
1__6
 70
     0
 10
669.1169296338733
 20
-167.2619988927219
 30
0.0
  3
1__6
  1

  0
INSERT
  5
7A
330
79
100
AcDbEntity
  8
0
100
AcDbBlockReference
  2
Gen1
 10
669.1169296338733
 20
-167.2619988927219
 30
0.0
  0
ENDBLK
  5
7C
330
79
100
AcDbEntity
  8
0
100
AcDbBlockEnd
  0
BLOCK
  5
7F
330
7D
100
AcDbEntity
  8
0
100
AcDbBlockBegin
  2
Paste1
 70
     0
 10
669.1169296338733
 20
-167.2619988927219
 30
0.0
  3
Paste1
  1

  0
INSERT
  5
7E
330
7D
100
AcDbEntity
  8
1
100
AcDbBlockReference
  2
1__6
 10
669.1169296338733
 20
-167.2619988927219
 30
0.0
  0
ENDBLK
  5
80
330
7D
100
AcDbEntity
  8
0
100
AcDbBlockEnd
  0
BLOCK
  5
82
330
81
100
AcDbEntity
  8
0
100
AcDbBlockBegin
  2
_rahmen
 70
     0
 10
795.25000000197
 20
-289.1499996184801
 30
0.0
  3
_rahmen
  1

  0
LINE
  5
218
330
81
100
AcDbEntity
  8
1
  6
DOT_CENTER
 62
     2
100
AcDbLine
 10
669.6918503617825
 20
-263.0249996184808
 30
0.0
 11
675.1918503617825
 21
-263.0249996184808
 31
0.0
  0
LINE
  5
219
330
81
100
AcDbEntity
  8
1
  6
PHANTOM
 62
     2
100
AcDbLine
 10
678.4418503617825
 20
-260.2749996184807
 30
0.0
 11
678.4418503617825
 21
-265.7749996184807
 31
0.0
  0
LINE
  5
21A
330
81
100
AcDbEntity
  8
1
  6
PHANTOM
 62
     2
100
AcDbLine
 10
681.1918503617825
 20
-263.0249996184808
 30
0.0
 11
675.6918503617825
 21
-263.0249996184808
 31
0.0
  0
LINE
  5
21B
330
81
100
AcDbEntity
  8
1
  6
Continuous
 62
     6
100
AcDbLine
 10
665.70519547522
 20
-258.6499996184807
 30
0.0
 11
795.2500000019717
 21
-258.6499996184807
 31
0.0
  0
LINE
  5
21C
330
81
100
AcDbEntity
  8
1
  6
Continuous
 62
     7
100
AcDbLine
 10
683.9051954752199
 20
-279.8999996184806
 30
0.0
 11
702.10519547522
 21
-279.8999996184806
 31
0.0
  0
LINE
  5
21D
330
81
100
AcDbEntity
  8
1
  6
Continuous
 62
     6
100
AcDbLine
 10
683.9051954752199
 20
-284.1499996184806
 30
0.0
 11
665.70519547522
 21
-284.1499996184807
 31
0.0
  0
LINE
  5
21E
330
81
100
AcDbEntity
  8
1
  6
Continuous
 62
     7
100
AcDbLine
 10
683.9051954752199
 20
-279.8999996184806
 30
0.0
 11
683.9051954752199
 21
-284.1499996184806
 31
0.0
  0
LINE
  5
21F
330
81
100
AcDbEntity
  8
1
  6
Continuous
 62
     7
100
AcDbLine
 10
702.10519547522
 20
-279.8999996184806
 30
0.0
 11
702.10519547522
 21
-284.1499996184807
 31
0.0
  0
LINE
  5
220
330
81
100
AcDbEntity
  8
1
  6
Continuous
 62
     7
100
AcDbLine
 10
665.70519547522
 20
-279.8999996184807
 30
0.0
 11
665.70519547522
 21
-284.1499996184807
 31
0.0
  0
LINE
  5
221
330
81
100
AcDbEntity
  8
1
  6
Continuous
 62
     7
100
AcDbLine
 10
665.70519547522
 20
-279.8999996184807
 30
0.0
 11
683.9051954752199
 21
-279.8999996184806
 31
0.0
  0
LINE
  5
222
330
81
100
AcDbEntity
  8
1
  6
Continuous
 62
     2
100
AcDbLine
 10
674.9418503617825
 20
-260.5249996184808
 30
0.0
 11
674.9418503617825
 21
-265.5249996184808
 31
0.0
  0
LINE
  5
223
330
81
100
AcDbEntity
  8
1
  6
Continuous
 62
     2
100
AcDbLine
 10
674.9418503617825
 20
-265.5249996184808
 30
0.0
 11
669.9418503617825
 21
-264.2749996184808
 31
0.0
  0
LINE
  5
224
330
81
100
AcDbEntity
  8
1
  6
Continuous
 62
     2
100
AcDbLine
 10
669.9418503617825
 20
-264.2749996184808
 30
0.0
 11
669.9418503617825
 21
-261.7749996184808
 31
0.0
  0
LINE
  5
225
330
81
100
AcDbEntity
  8
1
  6
Continuous
 62
     2
100
AcDbLine
 10
669.9418503617825
 20
-261.7749996184808
 30
0.0
 11
674.9418503617825
 21
-260.5249996184808
 31
0.0
  0
LINE
  5
226
330
81
100
AcDbEntity
  8
1
  6
Continuous
 62
     6
100
AcDbLine
 10
795.2500000019717
 20
-267.1499996184807
 30
0.0
 11
795.2500000019712
 21
-275.6499996184807
 31
0.0
  0
LINE
  5
227
330
81
100
AcDbEntity
  8
1
  6
Continuous
 62
     6
100
AcDbLine
 10
702.10519547522
 20
-284.1499996184807
 30
0.0
 11
701.75000000197
 21
-284.1499996184806
 31
0.0
  0
LINE
  5
228
330
81
100
AcDbEntity
  8
1
  6
Continuous
 62
     7
100
AcDbLine
 10
702.10519547522
 20
-267.1499996184807
 30
0.0
 11
702.10519547522
 21
-279.8999996184806
 31
0.0
  0
LINE
  5
229
330
81
100
AcDbEntity
  8
1
  6
Continuous
 62
     7
100
AcDbLine
 10
665.70519547522
 20
-267.1499996184807
 30
0.0
 11
665.70519547522
 21
-279.8999996184807
 31
0.0
  0
LINE
  5
22A
330
81
100
AcDbEntity
  8
1
  6
Continuous
 62
     6
100
AcDbLine
 10
702.10519547522
 20
-284.1499996184807
 30
0.0
 11
751.75000000197
 21
-284.1499996184806
 31
0.0
  0
LINE
  5
22B
330
81
100
AcDbEntity
  8
1
  6
Continuous
 62
     6
100
AcDbLine
 10
795.2500000019699
 20
-284.1499996184806
 30
0.0
 11
795.2500000019712
 21
-275.6499996184807
 31
0.0
  0
LINE
  5
22C
330
81
100
AcDbEntity
  8
1
  6
Continuous
 62
     6
100
AcDbLine
 10
665.70519547522
 20
-267.1499996184807
 30
0.0
 11
702.10519547522
 21
-267.1499996184807
 31
0.0
  0
LINE
  5
22D
330
81
100
AcDbEntity
  8
1
  6
Continuous
 62
     6
100
AcDbLine
 10
701.75000000197
 20
-284.1499996184806
 30
0.0
 11
683.9051954752199
 21
-284.1499996184806
 31
0.0
  0
LINE
  5
22E
330
81
100
AcDbEntity
  8
1
  6
Continuous
 62
     6
100
AcDbLine
 10
751.75000000197
 20
-284.1499996184806
 30
0.0
 11
795.2500000019699
 21
-284.1499996184806
 31
0.0
  0
LINE
  5
22F
102
{ACAD_REACTORS
330
35D
330
35E
102
}
330
81
100
AcDbEntity
  8
0
  6
Continuous
 62
     2
100
AcDbLine
 10
673.2198214173668
 20
-272.0774848622686
 30
0.0
 11
673.2198214173668
 21
-271.4719495737618
 31
0.0
  0
LINE
  5
230
102
{ACAD_REACTORS
330
35D
330
35E
102
}
330
81
100
AcDbEntity
  8
0
  6
Continuous
 62
     2
100
AcDbLine
 10
673.2198214173668
 20
-274.8776194688998
 30
0.0
 11
673.2198214173668
 21
-274.2957680622047
 31
0.0
  0
LINE
  5
231
102
{ACAD_REACTORS
330
35F
330
360
102
}
330
81
100
AcDbEntity
  8
0
  6
Continuous
 62
     2
100
AcDbLine
 10
695.8493078528459
 20
-274.5879554007769
 30
0.0
 11
695.8493078528459
 21
-276.8564996184643
 31
0.0
  0
LINE
  5
232
102
{ACAD_REACTORS
330
35F
330
360
102
}
330
81
100
AcDbEntity
  8
0
  6
Continuous
 62
     2
100
AcDbLine
 10
694.4682540738584
 20
-273.8026900946538
 30
0.0
 11
697.853199592487
 21
-273.8026900946531
 31
0.0
  0
LINE
  5
233
102
{ACAD_REACTORS
330
35F
330
360
102
}
330
81
100
AcDbEntity
  8
0
  6
Continuous
 62
     2
100
AcDbLine
 10
697.853199592487
 20
-274.5879554007769
 30
0.0
 11
697.853199592487
 21
-273.8026900946531
 31
0.0
  0
LINE
  5
234
102
{ACAD_REACTORS
330
35F
330
360
102
}
330
81
100
AcDbEntity
  8
0
  6
Continuous
 62
     2
100
AcDbLine
 10
697.0421005550136
 20
-274.5879554007769
 30
0.0
 11
697.853199592487
 21
-274.5879554007769
 31
0.0
  0
LINE
  5
235
102
{ACAD_REACTORS
330
35F
330
360
102
}
330
81
100
AcDbEntity
  8
0
  6
Continuous
 62
     2
100
AcDbLine
 10
697.0421005550136
 20
-276.8564996184643
 30
0.0
 11
697.0421005550136
 21
-274.5879554007769
 31
0.0
  0
LINE
  5
236
102
{ACAD_REACTORS
330
35F
330
360
102
}
330
81
100
AcDbEntity
  8
0
  6
Continuous
 62
     2
100
AcDbLine
 10
695.8493078528459
 20
-276.8564996184643
 30
0.0
 11
697.0421005550136
 21
-276.8564996184643
 31
0.0
  0
LINE
  5
237
102
{ACAD_REACTORS
330
355
330
356
102
}
330
81
100
AcDbEntity
  8
0
  6
Continuous
 62
     2
100
AcDbLine
 10
695.1527169147814
 20
-270.4434996184789
 30
0.0
 11
693.7499926970322
 21
-270.4434996184789
 31
0.0
  0
LINE
  5
238
102
{ACAD_REACTORS
330
355
330
356
102
}
330
81
100
AcDbEntity
  8
0
  6
Continuous
 62
     2
100
AcDbLine
 10
695.1527169147814
 20
-270.4434996184789
 30
0.0
 11
695.7538844366733
 21
-271.1233229400344
 31
0.0
  0
LINE
  5
239
102
{ACAD_REACTORS
330
355
330
356
102
}
330
81
100
AcDbEntity
  8
0
  6
Continuous
 62
     2
100
AcDbLine
 10
695.7538844366733
 20
-271.1233229400344
 30
0.0
 11
696.355051958566
 21
-270.4434996184789
 31
0.0
  0
LINE
  5
23A
102
{ACAD_REACTORS
330
355
330
356
102
}
330
81
100
AcDbEntity
  8
0
  6
Continuous
 62
     2
100
AcDbLine
 10
696.4552465455467
 20
-271.9164501485151
 30
0.0
 11
697.7577761763133
 21
-270.4434996184789
 31
0.0
  0
LINE
  5
23B
102
{ACAD_REACTORS
330
355
330
356
102
}
330
81
100
AcDbEntity
  8
0
  6
Continuous
 62
     2
100
AcDbLine
 10
696.4552465455467
 20
-271.9164501485151
 30
0.0
 11
697.853199592487
 21
-273.49730914229
 31
0.0
  0
LINE
  5
23C
102
{ACAD_REACTORS
330
355
330
356
102
}
330
81
100
AcDbEntity
  8
0
  6
Continuous
 62
     2
100
AcDbLine
 10
696.4504753747387
 20
-273.49730914229
 30
0.0
 11
697.853199592487
 21
-273.49730914229
 31
0.0
  0
LINE
  5
23D
102
{ACAD_REACTORS
330
355
330
356
102
}
330
81
100
AcDbEntity
  8
0
  6
Continuous
 62
     2
100
AcDbLine
 10
695.7538844366733
 20
-272.7095773569963
 30
0.0
 11
696.4504753747387
 21
-273.49730914229
 31
0.0
  0
LINE
  5
23E
102
{ACAD_REACTORS
330
353
330
354
102
}
330
81
100
AcDbEntity
  8
0
  6
Continuous
 62
     2
100
AcDbLine
 10
692.2947856003896
 20
-270.4434996184789
 30
0.0
 11
693.5352900106425
 21
-270.4434996184789
 31
0.0
  0
LINE
  5
23F
102
{ACAD_REACTORS
330
353
330
354
102
}
330
81
100
AcDbEntity
  8
0
  6
Continuous
 62
     2
100
AcDbLine
 10
693.5352900106425
 20
-270.4434996184789
 30
0.0
 11
693.5352900106425
 21
-273.49730914229
 31
0.0
  0
LINE
  5
240
102
{ACAD_REACTORS
330
353
330
354
102
}
330
81
100
AcDbEntity
  8
0
  6
Continuous
 62
     2
100
AcDbLine
 10
692.2947856003896
 20
-273.49730914229
 30
0.0
 11
692.2947856003896
 21
-270.4434996184789
 31
0.0
  0
LINE
  5
241
102
{ACAD_REACTORS
330
351
330
352
102
}
330
81
100
AcDbEntity
  8
0
  6
Continuous
 62
     2
100
AcDbLine
 10
690.826475517852
 20
-275.6349758089399
 30
0.0
 11
691.1266407550443
 21
-274.8671608429532
 31
0.0
  0
LINE
  5
242
102
{ACAD_REACTORS
330
351
330
352
102
}
330
81
100
AcDbEntity
  8
0
  6
Continuous
 62
     2
100
AcDbLine
 10
690.3489399132311
 20
-276.8564996184643
 30
0.0
 11
690.5604199667068
 21
-276.3155390742465
 31
0.0
  0
LINE
  5
243
102
{ACAD_REACTORS
330
351
330
352
102
}
330
81
100
AcDbEntity
  8
0
  6
Continuous
 62
     2
100
AcDbLine
 10
690.5063885499173
 20
-273.8026900946531
 30
0.0
 11
689.1084355029782
 21
-276.8564996184643
 31
0.0
  0
LINE
  5
244
102
{ACAD_REACTORS
330
351
330
352
102
}
330
81
100
AcDbEntity
  8
0
  6
Continuous
 62
     2
100
AcDbLine
 10
693.1448460071105
 20
-276.8564996184643
 30
0.0
 11
691.9043415968566
 21
-276.8564996184643
 31
0.0
  0
LINE
  5
245
102
{ACAD_REACTORS
330
351
330
352
102
}
330
81
100
AcDbEntity
  8
0
  6
Continuous
 62
     2
100
AcDbLine
 10
690.5604199667068
 20
-276.3155390742465
 30
0.0
 11
691.6928615433808
 21
-276.3155390742465
 31
0.0
  0
LINE
  5
246
102
{ACAD_REACTORS
330
34F
330
350
102
}
330
81
100
AcDbEntity
  8
0
  6
Continuous
 62
     2
100
AcDbLine
 10
686.9509233637959
 20
-274.5879554007769
 30
0.0
 11
687.7620224012705
 21
-274.5879554007769
 31
0.0
  0
LINE
  5
247
102
{ACAD_REACTORS
330
34F
330
350
102
}
330
81
100
AcDbEntity
  8
0
  6
Continuous
 62
     2
100
AcDbLine
 10
689.7659141409097
 20
-273.8026900946531
 30
0.0
 11
686.9509233637959
 21
-273.8026900946531
 31
0.0
  0
LINE
  5
248
102
{ACAD_REACTORS
330
34F
330
350
102
}
330
81
100
AcDbEntity
  8
0
  6
Continuous
 62
     2
100
AcDbLine
 10
689.7659141409097
 20
-274.5879554007769
 30
0.0
 11
689.7659141409097
 21
-273.8026900946531
 31
0.0
  0
LINE
  5
249
102
{ACAD_REACTORS
330
34F
330
350
102
}
330
81
100
AcDbEntity
  8
0
  6
Continuous
 62
     2
100
AcDbLine
 10
688.954815103437
 20
-274.5879554007769
 30
0.0
 11
689.7659141409097
 21
-274.5879554007769
 31
0.0
  0
LINE
  5
24A
102
{ACAD_REACTORS
330
34F
330
350
102
}
330
81
100
AcDbEntity
  8
0
  6
Continuous
 62
     2
100
AcDbLine
 10
688.954815103437
 20
-276.8564996184643
 30
0.0
 11
688.954815103437
 21
-274.5879554007769
 31
0.0
  0
LINE
  5
24B
102
{ACAD_REACTORS
330
34D
330
34E
102
}
330
81
100
AcDbEntity
  8
0
  6
Continuous
 62
     2
100
AcDbLine
 10
689.622929947535
 20
-273.49730914229
 30
0.0
 11
689.622929947535
 21
-272.1885336320852
 31
0.0
  0
LINE
  5
24C
102
{ACAD_REACTORS
330
34D
330
34E
102
}
330
81
100
AcDbEntity
  8
0
  6
Continuous
 62
     2
100
AcDbLine
 10
688.4301372453685
 20
-270.4434996184789
 30
0.0
 11
688.4301372453685
 21
-273.49730914229
 31
0.0
  0
LINE
  5
24D
102
{ACAD_REACTORS
330
34D
330
34E
102
}
330
81
100
AcDbEntity
  8
0
  6
Continuous
 62
     2
100
AcDbLine
 10
689.622929947535
 20
-270.4434996184789
 30
0.0
 11
688.4301372453685
 21
-270.4434996184789
 31
0.0
  0
LINE
  5
24E
102
{ACAD_REACTORS
330
34D
330
34E
102
}
330
81
100
AcDbEntity
  8
0
  6
Continuous
 62
     2
100
AcDbLine
 10
690.8634343577891
 20
-270.4434996184789
 30
0.0
 11
690.8634343577891
 21
-271.752275128684
 31
0.0
  0
LINE
  5
24F
102
{ACAD_REACTORS
330
34B
330
34C
102
}
330
81
100
AcDbEntity
  8
0
  6
Continuous
 62
     2
100
AcDbLine
 10
683.1816984249489
 20
-273.8026900946531
 30
0.0
 11
683.1816984249489
 21
-276.8564996184643
 31
0.0
  0
LINE
  5
250
102
{ACAD_REACTORS
330
34B
330
34C
102
}
330
81
100
AcDbEntity
  8
0
  6
Continuous
 62
     2
100
AcDbLine
 10
684.3744911271165
 20
-273.8026900946531
 30
0.0
 11
683.1816984249489
 21
-273.8026900946531
 31
0.0
  0
LINE
  5
251
102
{ACAD_REACTORS
330
34B
330
34C
102
}
330
81
100
AcDbEntity
  8
0
  6
Continuous
 62
     2
100
AcDbLine
 10
685.6149955373694
 20
-276.8564996184643
 30
0.0
 11
686.8077882395357
 21
-276.8564996184643
 31
0.0
  0
LINE
  5
252
102
{ACAD_REACTORS
330
34B
330
34C
102
}
330
81
100
AcDbEntity
  8
0
  6
Continuous
 62
     2
100
AcDbLine
 10
683.1816984249489
 20
-276.8564996184643
 30
0.0
 11
684.3744911271165
 21
-276.8564996184643
 31
0.0
  0
LINE
  5
253
102
{ACAD_REACTORS
330
35B
330
35C
102
}
330
81
100
AcDbEntity
  8
0
  6
Continuous
 62
     2
100
AcDbLine
 10
686.855650878508
 20
-271.6213975776635
 30
0.0
 11
686.855650878508
 21
-271.1415132239218
 31
0.0
  0
LINE
  5
254
102
{ACAD_REACTORS
330
35B
330
35C
102
}
330
81
100
AcDbEntity
  8
0
  6
Continuous
 62
     2
100
AcDbLine
 10
688.1915787049356
 20
-271.6213975776635
 30
0.0
 11
686.855650878508
 21
-271.6213975776635
 31
0.0
  0
LINE
  5
255
102
{ACAD_REACTORS
330
35B
330
35C
102
}
330
81
100
AcDbEntity
  8
0
  6
Continuous
 62
     2
100
AcDbLine
 10
688.1915787049356
 20
-272.3194111831058
 30
0.0
 11
688.1915787049356
 21
-271.6213975776635
 31
0.0
  0
LINE
  5
256
102
{ACAD_REACTORS
330
35B
330
35C
102
}
330
81
100
AcDbEntity
  8
0
  6
Continuous
 62
     2
100
AcDbLine
 10
686.855650878508
 20
-272.3194111831058
 30
0.0
 11
688.1915787049356
 21
-272.3194111831058
 31
0.0
  0
LINE
  5
257
102
{ACAD_REACTORS
330
349
330
34A
102
}
330
81
100
AcDbEntity
  8
0
  6
Continuous
 62
     2
100
AcDbLine
 10
683.3726961881811
 20
-270.4434996184789
 30
0.0
 11
683.3726961881811
 21
-273.49730914229
 31
0.0
  0
LINE
  5
258
102
{ACAD_REACTORS
330
349
330
34A
102
}
330
81
100
AcDbEntity
  8
0
  6
Continuous
 62
     2
100
AcDbLine
 10
683.3726961881811
 20
-273.49730914229
 30
0.0
 11
682.1799034860146
 21
-273.49730914229
 31
0.0
  0
LINE
  5
259
102
{ACAD_REACTORS
330
349
330
34A
102
}
330
81
100
AcDbEntity
  8
0
  6
Continuous
 62
     2
100
AcDbLine
 10
682.1799034860146
 20
-273.49730914229
 30
0.0
 11
682.1799034860146
 21
-272.3630370334463
 31
0.0
  0
LINE
  5
25A
102
{ACAD_REACTORS
330
349
330
34A
102
}
330
81
100
AcDbEntity
  8
0
  6
Continuous
 62
     2
100
AcDbLine
 10
681.1302459081072
 20
-273.49730914229
 30
0.0
 11
679.9374532059406
 21
-273.49730914229
 31
0.0
  0
LINE
  5
25B
102
{ACAD_REACTORS
330
349
330
34A
102
}
330
81
100
AcDbEntity
  8
0
  6
Continuous
 62
     2
100
AcDbLine
 10
679.9374532059406
 20
-270.4434996184789
 30
0.0
 11
681.1302459081072
 21
-270.4434996184789
 31
0.0
  0
LINE
  5
25C
102
{ACAD_REACTORS
330
349
330
34A
102
}
330
81
100
AcDbEntity
  8
0
  6
Continuous
 62
     2
100
AcDbLine
 10
681.1302459081072
 20
-270.4434996184789
 30
0.0
 11
681.1302459081072
 21
-271.5123329518135
 31
0.0
  0
LINE
  5
25D
102
{ACAD_REACTORS
330
349
330
34A
102
}
330
81
100
AcDbEntity
  8
0
  6
Continuous
 62
     2
100
AcDbLine
 10
681.1302459081072
 20
-271.5123329518135
 30
0.0
 11
682.1799034860146
 21
-271.5123329518135
 31
0.0
  0
LINE
  5
25E
102
{ACAD_REACTORS
330
357
330
358
102
}
330
81
100
AcDbEntity
  8
0
  6
Continuous
 62
     2
100
AcDbLine
 10
677.9812731743868
 20
-271.1066054639189
 30
0.0
 11
678.2985682359289
 21
-271.1066054639189
 31
0.0
  0
LINE
  5
25F
102
{ACAD_REACTORS
330
357
330
358
102
}
330
81
100
AcDbEntity
  8
0
  6
Continuous
 62
     2
100
AcDbLine
 10
677.9812731743868
 20
-271.8123331132612
 30
0.0
 11
678.2985682359289
 21
-271.8123331132612
 31
0.0
  0
LINE
  5
260
102
{ACAD_REACTORS
330
357
330
358
102
}
330
81
100
AcDbEntity
  8
0
  6
Continuous
 62
     2
100
AcDbLine
 10
676.7407687641329
 20
-270.4434996184789
 30
0.0
 11
676.7407687641329
 21
-273.49730914229
 31
0.0
  0
LINE
  5
261
102
{ACAD_REACTORS
330
357
330
358
102
}
330
81
100
AcDbEntity
  8
0
  6
Continuous
 62
     2
100
AcDbLine
 10
676.7407687641329
 20
-270.4434996184789
 30
0.0
 11
678.7400407621673
 21
-270.4434996184789
 31
0.0
  0
LINE
  5
262
102
{ACAD_REACTORS
330
357
330
358
102
}
330
81
100
AcDbEntity
  8
0
  6
Continuous
 62
     2
100
AcDbLine
 10
677.9812731743868
 20
-272.5542309011462
 30
0.0
 11
678.7400407621673
 21
-272.5542309011462
 31
0.0
  0
LINE
  5
263
102
{ACAD_REACTORS
330
35D
330
35E
102
}
330
81
100
AcDbEntity
  8
0
  6
Continuous
 62
     2
100
AcDbLine
 10
670.6442727308362
 20
-271.4717720971136
 30
0.0
 11
670.6442727308362
 21
-275.8282271398307
 31
0.0
  0
LINE
  5
264
102
{ACAD_REACTORS
330
35D
330
35E
102
}
330
81
100
AcDbEntity
  8
0
  6
Continuous
 62
     2
100
AcDbLine
 10
670.9599896539119
 20
-271.1560551740375
 30
0.0
 11
672.4358229149213
 21
-271.1560551740375
 31
0.0
  0
LINE
  5
265
102
{ACAD_REACTORS
330
35D
330
35E
102
}
330
81
100
AcDbEntity
  8
0
  6
Continuous
 62
     2
100
AcDbLine
 10
672.751539837998
 20
-272.0757967161742
 30
0.0
 11
672.751539837998
 21
-271.4717720971136
 31
0.0
  0
LINE
  5
266
102
{ACAD_REACTORS
330
35D
330
35E
102
}
330
81
100
AcDbEntity
  8
0
  6
Continuous
 62
     2
100
AcDbLine
 10
672.751539837998
 20
-275.8282271398307
 30
0.0
 11
672.751539837998
 21
-274.2974562082991
 31
0.0
  0
LINE
  5
267
102
{ACAD_REACTORS
330
35D
330
35E
102
}
330
81
100
AcDbEntity
  8
0
  6
Continuous
 62
     2
100
AcDbLine
 10
675.8394070678822
 20
-276.8564996184643
 30
0.0
 11
670.3660949771653
 21
-276.8564996184643
 31
0.0
  0
LINE
  5
268
102
{ACAD_REACTORS
330
35D
330
35E
102
}
330
81
100
AcDbEntity
  8
0
  6
Continuous
 62
     2
100
AcDbLine
 10
676.2636516832661
 20
-270.8677442338808
 30
0.0
 11
676.2636516832661
 21
-276.4322550030811
 31
0.0
  0
LINE
  5
269
102
{ACAD_REACTORS
330
35D
330
35E
102
}
330
81
100
AcDbEntity
  8
0
  6
Continuous
 62
     2
100
AcDbLine
 10
670.3660949771653
 20
-270.443499618497
 30
0.0
 11
675.8394070678822
 21
-270.443499618497
 31
0.0
  0
LINE
  5
26A
102
{ACAD_REACTORS
330
35D
330
35E
102
}
330
81
100
AcDbEntity
  8
0
  6
Continuous
 62
     2
100
AcDbLine
 10
669.9418503617825
 20
-270.8677442338808
 30
0.0
 11
669.9418503617825
 21
-276.4322550030811
 31
0.0
  0
LINE
  5
26B
102
{ACAD_REACTORS
330
35D
330
35E
102
}
330
81
100
AcDbEntity
  8
0
  6
Continuous
 62
     2
100
AcDbLine
 10
672.4358229149213
 20
-276.1439440629074
 30
0.0
 11
670.9599896539119
 21
-276.1439440629074
 31
0.0
  0
LINE
  5
26C
102
{ACAD_REACTORS
330
357
330
358
102
}
330
81
100
AcDbEntity
  8
0
  6
Continuous
 62
     2
100
AcDbLine
 10
677.9812731743868
 20
-273.49730914229
 30
0.0
 11
677.9812731743868
 21
-272.5542309011462
 31
0.0
  0
LINE
  5
26D
102
{ACAD_REACTORS
330
357
330
358
102
}
330
81
100
AcDbEntity
  8
0
  6
Continuous
 62
     2
100
AcDbLine
 10
676.7407687641329
 20
-273.49730914229
 30
0.0
 11
677.9812731743868
 21
-273.49730914229
 31
0.0
  0
LINE
  5
26E
102
{ACAD_REACTORS
330
357
330
358
102
}
330
81
100
AcDbEntity
  8
0
  6
Continuous
 62
     2
100
AcDbLine
 10
677.9812731743868
 20
-271.8123331132612
 30
0.0
 11
677.9812731743868
 21
-271.1066054639189
 31
0.0
  0
LINE
  5
26F
102
{ACAD_REACTORS
330
349
330
34A
102
}
330
81
100
AcDbEntity
  8
0
  6
Continuous
 62
     2
100
AcDbLine
 10
679.9374532059406
 20
-270.4434996184789
 30
0.0
 11
679.9374532059406
 21
-273.49730914229
 31
0.0
  0
LINE
  5
270
102
{ACAD_REACTORS
330
349
330
34A
102
}
330
81
100
AcDbEntity
  8
0
  6
Continuous
 62
     2
100
AcDbLine
 10
681.1302459081072
 20
-272.3630370334463
 30
0.0
 11
681.1302459081072
 21
-273.49730914229
 31
0.0
  0
LINE
  5
271
102
{ACAD_REACTORS
330
349
330
34A
102
}
330
81
100
AcDbEntity
  8
0
  6
Continuous
 62
     2
100
AcDbLine
 10
682.1799034860146
 20
-272.3630370334463
 30
0.0
 11
681.1302459081072
 21
-272.3630370334463
 31
0.0
  0
LINE
  5
272
102
{ACAD_REACTORS
330
349
330
34A
102
}
330
81
100
AcDbEntity
  8
0
  6
Continuous
 62
     2
100
AcDbLine
 10
682.1799034860146
 20
-270.4434996184789
 30
0.0
 11
683.3726961881811
 21
-270.4434996184789
 31
0.0
  0
LINE
  5
273
102
{ACAD_REACTORS
330
349
330
34A
102
}
330
81
100
AcDbEntity
  8
0
  6
Continuous
 62
     2
100
AcDbLine
 10
682.1799034860146
 20
-271.5123329518135
 30
0.0
 11
682.1799034860146
 21
-270.4434996184789
 31
0.0
  0
LINE
  5
274
102
{ACAD_REACTORS
330
35B
330
35C
102
}
330
81
100
AcDbEntity
  8
0
  6
Continuous
 62
     2
100
AcDbLine
 10
688.1915787049356
 20
-271.1415132239218
 30
0.0
 11
688.1915787049356
 21
-270.4434996184789
 31
0.0
  0
LINE
  5
275
102
{ACAD_REACTORS
330
35B
330
35C
102
}
330
81
100
AcDbEntity
  8
0
  6
Continuous
 62
     2
100
AcDbLine
 10
685.0412589811547
 20
-270.4434996184789
 30
0.0
 11
688.1915787049356
 21
-270.4434996184789
 31
0.0
  0
LINE
  5
276
102
{ACAD_REACTORS
330
35B
330
35C
102
}
330
81
100
AcDbEntity
  8
0
  6
Continuous
 62
     2
100
AcDbLine
 10
685.0412589811547
 20
-273.49730914229
 30
0.0
 11
688.1915787049356
 21
-273.49730914229
 31
0.0
  0
LINE
  5
277
102
{ACAD_REACTORS
330
35B
330
35C
102
}
330
81
100
AcDbEntity
  8
0
  6
Continuous
 62
     2
100
AcDbLine
 10
688.1915787049356
 20
-273.49730914229
 30
0.0
 11
688.1915787049356
 21
-272.7992955368476
 31
0.0
  0
LINE
  5
278
102
{ACAD_REACTORS
330
35B
330
35C
102
}
330
81
100
AcDbEntity
  8
0
  6
Continuous
 62
     2
100
AcDbLine
 10
688.1915787049356
 20
-272.7992955368476
 30
0.0
 11
686.855650878508
 21
-272.7992955368476
 31
0.0
  0
LINE
  5
279
102
{ACAD_REACTORS
330
35B
330
35C
102
}
330
81
100
AcDbEntity
  8
0
  6
Continuous
 62
     2
100
AcDbLine
 10
686.855650878508
 20
-272.7992955368476
 30
0.0
 11
686.855650878508
 21
-272.3194111831058
 31
0.0
  0
LINE
  5
27A
102
{ACAD_REACTORS
330
35B
330
35C
102
}
330
81
100
AcDbEntity
  8
0
  6
Continuous
 62
     2
100
AcDbLine
 10
686.855650878508
 20
-271.1415132239218
 30
0.0
 11
688.1915787049356
 21
-271.1415132239218
 31
0.0
  0
LINE
  5
27B
102
{ACAD_REACTORS
330
34B
330
34C
102
}
330
81
100
AcDbEntity
  8
0
  6
Continuous
 62
     2
100
AcDbLine
 10
684.3744911271165
 20
-276.8564996184643
 30
0.0
 11
684.3744911271165
 21
-275.5477241082598
 31
0.0
  0
LINE
  5
27C
102
{ACAD_REACTORS
330
34B
330
34C
102
}
330
81
100
AcDbEntity
  8
0
  6
Continuous
 62
     2
100
AcDbLine
 10
684.3744911271165
 20
-275.5477241082598
 30
0.0
 11
685.6149955373694
 21
-276.8564996184643
 31
0.0
  0
LINE
  5
27D
102
{ACAD_REACTORS
330
34B
330
34C
102
}
330
81
100
AcDbEntity
  8
0
  6
Continuous
 62
     2
100
AcDbLine
 10
686.8077882395357
 20
-276.8564996184643
 30
0.0
 11
686.8077882395357
 21
-273.8026900946531
 31
0.0
  0
LINE
  5
27E
102
{ACAD_REACTORS
330
34B
330
34C
102
}
330
81
100
AcDbEntity
  8
0
  6
Continuous
 62
     2
100
AcDbLine
 10
686.8077882395357
 20
-273.8026900946531
 30
0.0
 11
685.6149955373694
 21
-273.8026900946531
 31
0.0
  0
LINE
  5
27F
102
{ACAD_REACTORS
330
34B
330
34C
102
}
330
81
100
AcDbEntity
  8
0
  6
Continuous
 62
     2
100
AcDbLine
 10
685.6149955373694
 20
-273.8026900946531
 30
0.0
 11
685.6149955373694
 21
-275.1114656048584
 31
0.0
  0
LINE
  5
280
102
{ACAD_REACTORS
330
34B
330
34C
102
}
330
81
100
AcDbEntity
  8
0
  6
Continuous
 62
     2
100
AcDbLine
 10
685.6149955373694
 20
-275.1114656048584
 30
0.0
 11
684.3744911271165
 21
-273.8026900946531
 31
0.0
  0
LINE
  5
281
102
{ACAD_REACTORS
330
34D
330
34E
102
}
330
81
100
AcDbEntity
  8
0
  6
Continuous
 62
     2
100
AcDbLine
 10
689.622929947535
 20
-272.1885336320852
 30
0.0
 11
690.8634343577891
 21
-273.49730914229
 31
0.0
  0
LINE
  5
282
102
{ACAD_REACTORS
330
34D
330
34E
102
}
330
81
100
AcDbEntity
  8
0
  6
Continuous
 62
     2
100
AcDbLine
 10
690.8634343577891
 20
-273.49730914229
 30
0.0
 11
692.0562270599557
 21
-273.49730914229
 31
0.0
  0
LINE
  5
283
102
{ACAD_REACTORS
330
34D
330
34E
102
}
330
81
100
AcDbEntity
  8
0
  6
Continuous
 62
     2
100
AcDbLine
 10
692.0562270599557
 20
-273.49730914229
 30
0.0
 11
692.0562270599557
 21
-270.4434996184789
 31
0.0
  0
LINE
  5
284
102
{ACAD_REACTORS
330
34D
330
34E
102
}
330
81
100
AcDbEntity
  8
0
  6
Continuous
 62
     2
100
AcDbLine
 10
692.0562270599557
 20
-270.4434996184789
 30
0.0
 11
690.8634343577891
 21
-270.4434996184789
 31
0.0
  0
LINE
  5
285
102
{ACAD_REACTORS
330
34D
330
34E
102
}
330
81
100
AcDbEntity
  8
0
  6
Continuous
 62
     2
100
AcDbLine
 10
690.8634343577891
 20
-271.752275128684
 30
0.0
 11
689.622929947535
 21
-270.4434996184789
 31
0.0
  0
LINE
  5
286
102
{ACAD_REACTORS
330
34D
330
34E
102
}
330
81
100
AcDbEntity
  8
0
  6
Continuous
 62
     2
100
AcDbLine
 10
688.4301372453685
 20
-273.49730914229
 30
0.0
 11
689.622929947535
 21
-273.49730914229
 31
0.0
  0
LINE
  5
287
102
{ACAD_REACTORS
330
34F
330
350
102
}
330
81
100
AcDbEntity
  8
0
  6
Continuous
 62
     2
100
AcDbLine
 10
686.9509233637959
 20
-273.8026900946531
 30
0.0
 11
686.9509233637959
 21
-274.5879554007769
 31
0.0
  0
LINE
  5
288
102
{ACAD_REACTORS
330
34F
330
350
102
}
330
81
100
AcDbEntity
  8
0
  6
Continuous
 62
     2
100
AcDbLine
 10
687.7620224012705
 20
-274.5879554007769
 30
0.0
 11
687.7620224012705
 21
-276.8564996184643
 31
0.0
  0
LINE
  5
289
102
{ACAD_REACTORS
330
34F
330
350
102
}
330
81
100
AcDbEntity
  8
0
  6
Continuous
 62
     2
100
AcDbLine
 10
687.7620224012705
 20
-276.8564996184643
 30
0.0
 11
688.954815103437
 21
-276.8564996184643
 31
0.0
  0
LINE
  5
28A
102
{ACAD_REACTORS
330
351
330
352
102
}
330
81
100
AcDbEntity
  8
0
  6
Continuous
 62
     2
100
AcDbLine
 10
691.9043415968566
 20
-276.8564996184643
 30
0.0
 11
691.6928615433808
 21
-276.3155390742465
 31
0.0
  0
LINE
  5
28B
102
{ACAD_REACTORS
330
351
330
352
102
}
330
81
100
AcDbEntity
  8
0
  6
Continuous
 62
     2
100
AcDbLine
 10
691.7468929601703
 20
-273.8026900946531
 30
0.0
 11
693.1448460071105
 21
-276.8564996184643
 31
0.0
  0
LINE
  5
28C
102
{ACAD_REACTORS
330
351
330
352
102
}
330
81
100
AcDbEntity
  8
0
  6
Continuous
 62
     2
100
AcDbLine
 10
690.5063885499173
 20
-273.8026900946531
 30
0.0
 11
691.7468929601703
 21
-273.8026900946531
 31
0.0
  0
LINE
  5
28D
102
{ACAD_REACTORS
330
351
330
352
102
}
330
81
100
AcDbEntity
  8
0
  6
Continuous
 62
     2
100
AcDbLine
 10
689.1084355029782
 20
-276.8564996184643
 30
0.0
 11
690.3489399132311
 21
-276.8564996184643
 31
0.0
  0
LINE
  5
28E
102
{ACAD_REACTORS
330
351
330
352
102
}
330
81
100
AcDbEntity
  8
0
  6
Continuous
 62
     2
100
AcDbLine
 10
690.826475517852
 20
-275.6349758089399
 30
0.0
 11
691.4268059922344
 21
-275.6349758089399
 31
0.0
  0
LINE
  5
28F
102
{ACAD_REACTORS
330
351
330
352
102
}
330
81
100
AcDbEntity
  8
0
  6
Continuous
 62
     2
100
AcDbLine
 10
691.4268059922344
 20
-275.6349758089399
 30
0.0
 11
691.1266407550443
 21
-274.8671608429532
 31
0.0
  0
LINE
  5
290
102
{ACAD_REACTORS
330
353
330
354
102
}
330
81
100
AcDbEntity
  8
0
  6
Continuous
 62
     2
100
AcDbLine
 10
693.5352900106425
 20
-273.49730914229
 30
0.0
 11
692.2947856003896
 21
-273.49730914229
 31
0.0
  0
LINE
  5
291
102
{ACAD_REACTORS
330
355
330
356
102
}
330
81
100
AcDbEntity
  8
0
  6
Continuous
 62
     2
100
AcDbLine
 10
695.0572934986075
 20
-273.49730914229
 30
0.0
 11
693.6545692808594
 21
-273.49730914229
 31
0.0
  0
LINE
  5
292
102
{ACAD_REACTORS
330
355
330
356
102
}
330
81
100
AcDbEntity
  8
0
  6
Continuous
 62
     2
100
AcDbLine
 10
695.0572934986075
 20
-273.49730914229
 30
0.0
 11
695.7538844366733
 21
-272.7095773569963
 31
0.0
  0
LINE
  5
293
102
{ACAD_REACTORS
330
355
330
356
102
}
330
81
100
AcDbEntity
  8
0
  6
Continuous
 62
     2
100
AcDbLine
 10
696.355051958566
 20
-270.4434996184789
 30
0.0
 11
697.7577761763133
 21
-270.4434996184789
 31
0.0
  0
LINE
  5
294
102
{ACAD_REACTORS
330
355
330
356
102
}
330
81
100
AcDbEntity
  8
0
  6
Continuous
 62
     2
100
AcDbLine
 10
693.7499926970322
 20
-270.4434996184789
 30
0.0
 11
695.0525223277997
 21
-271.9164501485151
 31
0.0
  0
LINE
  5
295
102
{ACAD_REACTORS
330
355
330
356
102
}
330
81
100
AcDbEntity
  8
0
  6
Continuous
 62
     2
100
AcDbLine
 10
693.6545692808594
 20
-273.49730914229
 30
0.0
 11
695.0525223277997
 21
-271.9164501485151
 31
0.0
  0
LINE
  5
296
102
{ACAD_REACTORS
330
35F
330
360
102
}
330
81
100
AcDbEntity
  8
0
  6
Continuous
 62
     2
100
AcDbLine
 10
695.5153258962392
 20
-275.8094792103007
 30
0.0
 11
695.5153258962392
 21
-276.681996217104
 31
0.0
  0
LINE
  5
297
102
{ACAD_REACTORS
330
35F
330
360
102
}
330
81
100
AcDbEntity
  8
0
  6
Continuous
 62
     2
100
AcDbLine
 10
694.7456685532778
 20
-274.5879554007769
 30
0.0
 11
695.8493078528459
 21
-274.5879554007769
 31
0.0
  0
LINE
  5
298
102
{ACAD_REACTORS
330
361
330
362
102
}
330
81
100
AcDbEntity
  8
0
  6
Continuous
 62
     2
100
AcDbLine
 10
679.4126244169875
 20
-275.8094792103001
 30
0.0
 11
679.4126244169875
 21
-276.6819962171035
 31
0.0
  0
LINE
  5
299
102
{ACAD_REACTORS
330
361
330
362
102
}
330
81
100
AcDbEntity
  8
0
  6
Continuous
 62
     2
100
AcDbLine
 10
679.4126244169875
 20
-274.8497105028174
 30
0.0
 11
679.4126244169875
 21
-273.9771934960141
 31
0.0
  0
LINE
  5
29A
330
81
100
AcDbEntity
  8
1
  6
Continuous
 62
     7
100
AcDbLine
 10
795.2500000019712
 20
-275.6499996184807
 30
0.0
 11
702.10519547522
 21
-275.6499996184807
 31
0.0
  0
LINE
  5
29B
330
81
100
AcDbEntity
  8
1
  6
Continuous
 62
     7
100
AcDbLine
 10
786.3315917202925
 20
-258.6499996184807
 30
0.0
 11
786.3315917202925
 21
-267.1499996184807
 31
0.0
  0
LINE
  5
29C
330
81
100
AcDbEntity
  8
1
  6
Continuous
 62
     7
100
AcDbLine
 10
759.8315917202929
 20
-258.6499996184807
 30
0.0
 11
759.8315917202929
 21
-267.1499996184807
 31
0.0
  0
LINE
  5
29D
330
81
100
AcDbEntity
  8
1
  6
Continuous
 62
     7
100
AcDbLine
 10
702.10519547522
 20
-267.1499996184807
 30
0.0
 11
702.10519547522
 21
-258.6499996184807
 31
0.0
  0
LINE
  5
29E
330
81
100
AcDbEntity
  8
1
  6
Continuous
 62
     7
100
AcDbLine
 10
665.70519547522
 20
-267.1499996184807
 30
0.0
 11
665.70519547522
 21
-258.6499996184807
 31
0.0
  0
LINE
  5
29F
330
81
100
AcDbEntity
  8
1
  6
Continuous
 62
     6
100
AcDbLine
 10
702.10519547522
 20
-267.1499996184807
 30
0.0
 11
795.2500000019717
 21
-267.1499996184807
 31
0.0
  0
LINE
  5
2A0
330
81
100
AcDbEntity
  8
1
  6
Continuous
 62
     7
100
AcDbLine
 10
730.0051954752199
 20
-275.6499996184807
 30
0.0
 11
730.0051954752199
 21
-267.1499996184807
 31
0.0
  0
LINE
  5
2A1
330
81
100
AcDbEntity
  8
1
  6
Continuous
 62
     6
100
AcDbLine
 10
795.2500000019717
 20
-267.1499996184807
 30
0.0
 11
795.2500000019717
 21
-258.6499996184807
 31
0.0
  0
LINE
  5
2A2
330
81
100
AcDbEntity
  8
1
  6
Continuous
 62
     2
100
AcDbLine
 10
658.5833333353033
 20
-284.149999618483
 30
0.0
 11
658.5833333353033
 21
-284.1499996184801
 31
0.0
  0
LINE
  5
2A3
330
81
100
AcDbEntity
  8
1
  6
Continuous
 62
     6
100
AcDbLine
 10
521.9166666686368
 20
-284.1499996184801
 30
0.0
 11
665.70519547522
 21
-284.1499996184832
 31
0.0
  0
LINE
  5
2A4
330
81
100
AcDbEntity
  8
1
  6
Continuous
 62
     6
100
AcDbLine
 10
795.2500000019699
 20
-284.1499996184806
 30
0.0
 11
795.2500000019695
 21
-275.6499996184807
 31
0.0
  0
LINE
  5
2A5
330
81
100
AcDbEntity
  8
1
  6
Continuous
 62
     6
100
AcDbLine
 10
400.2500000019702
 20
-284.1499996184801
 30
0.0
 11
400.2500000019692
 21
2.85000038152014
 31
0.0
  0
LINE
  5
2A6
330
81
100
AcDbEntity
  8
1
  6
Continuous
 62
     2
100
AcDbLine
 10
380.2500000019691
 20
-140.6499996184801
 30
0.0
 11
380.2500000019691
 21
-289.1499996184801
 31
0.0
  0
LINE
  5
2A7
330
81
100
AcDbEntity
  8
1
  6
Continuous
 62
     2
100
AcDbLine
 10
380.2500000019691
 20
-140.6499996184801
 30
0.0
 11
390.2500000019692
 21
-140.6499996184801
 31
0.0
  0
LINE
  5
2A8
330
81
100
AcDbEntity
  8
1
  6
Continuous
 62
     2
100
AcDbLine
 10
380.2500000019691
 20
7.85000038151991
 30
0.0
 11
380.2500000019691
 21
-140.6499996184801
 31
0.0
  0
LINE
  5
2A9
330
81
100
AcDbEntity
  8
1
  6
Continuous
 62
     2
100
AcDbLine
 10
610.2500000019671
 20
7.85000038151991
 30
0.0
 11
590.25000000197
 21
7.85000038151991
 31
0.0
  0
LINE
  5
2AA
330
81
100
AcDbEntity
  8
1
  6
Continuous
 62
     2
100
AcDbLine
 10
610.2500000019671
 20
7.85000038151991
 30
0.0
 11
610.2500000019671
 21
3.85000038152014
 31
0.0
  0
LINE
  5
2AB
330
81
100
AcDbEntity
  8
1
  6
Continuous
 62
     2
100
AcDbLine
 10
400.2500000019692
 20
7.85000038151991
 30
0.0
 11
380.2500000019691
 21
7.85000038151991
 31
0.0
  0
LINE
  5
2AC
330
81
100
AcDbEntity
  8
1
  6
Continuous
 62
     2
100
AcDbLine
 10
400.2500000019692
 20
7.85000038151991
 30
0.0
 11
400.2500000019692
 21
3.85000038152014
 31
0.0
  0
LINE
  5
2AD
330
81
100
AcDbEntity
  8
1
  6
Continuous
 62
     2
100
AcDbLine
 10
453.5833333353033
 20
7.85000038151991
 30
0.0
 11
400.2500000019692
 21
7.85000038151991
 31
0.0
  0
LINE
  5
2AE
330
81
100
AcDbEntity
  8
1
  6
Continuous
 62
     6
100
AcDbLine
 10
453.5833333353033
 20
2.85000038152014
 30
0.0
 11
521.9166666686368
 21
2.85000038151991
 31
0.0
  0
LINE
  5
2AF
330
81
100
AcDbEntity
  8
1
  6
Continuous
 62
     2
100
AcDbLine
 10
453.5833333353033
 20
2.85000038152014
 30
0.0
 11
453.5833333353033
 21
7.85000038151991
 31
0.0
  0
LINE
  5
2B0
330
81
100
AcDbEntity
  8
1
  6
Continuous
 62
     2
100
AcDbLine
 10
521.9166666686368
 20
7.85000038151991
 30
0.0
 11
453.5833333353033
 21
7.85000038151991
 31
0.0
  0
LINE
  5
2B1
330
81
100
AcDbEntity
  8
1
  6
Continuous
 62
     6
100
AcDbLine
 10
521.9166666686368
 20
2.85000038151991
 30
0.0
 11
590.25000000197
 21
2.85000038151991
 31
0.0
  0
LINE
  5
2B2
330
81
100
AcDbEntity
  8
1
  6
Continuous
 62
     2
100
AcDbLine
 10
521.9166666686368
 20
2.85000038151991
 30
0.0
 11
521.9166666686368
 21
7.85000038151991
 31
0.0
  0
LINE
  5
2B3
330
81
100
AcDbEntity
  8
1
  6
Continuous
 62
     2
100
AcDbLine
 10
590.25000000197
 20
7.85000038151991
 30
0.0
 11
521.9166666686368
 21
7.85000038151991
 31
0.0
  0
LINE
  5
2B4
330
81
100
AcDbEntity
  8
1
  6
Continuous
 62
     6
100
AcDbLine
 10
590.25000000197
 20
2.85000038151991
 30
0.0
 11
658.5833333353033
 21
2.85000038151991
 31
0.0
  0
LINE
  5
2B5
330
81
100
AcDbEntity
  8
1
  6
Continuous
 62
     2
100
AcDbLine
 10
590.25000000197
 20
2.85000038151991
 30
0.0
 11
590.25000000197
 21
7.85000038151991
 31
0.0
  0
LINE
  5
2B6
330
81
100
AcDbEntity
  8
1
  6
Continuous
 62
     2
100
AcDbLine
 10
658.5833333353033
 20
7.85000038151991
 30
0.0
 11
610.2500000019671
 21
7.85000038151991
 31
0.0
  0
LINE
  5
2B7
330
81
100
AcDbEntity
  8
1
  6
Continuous
 62
     6
100
AcDbLine
 10
658.5833333353033
 20
2.85000038151991
 30
0.0
 11
726.9166666686365
 21
2.85000038151991
 31
0.0
  0
LINE
  5
2B8
330
81
100
AcDbEntity
  8
1
  6
Continuous
 62
     2
100
AcDbLine
 10
658.5833333353033
 20
2.85000038151991
 30
0.0
 11
658.5833333353033
 21
7.85000038151991
 31
0.0
  0
LINE
  5
2B9
330
81
100
AcDbEntity
  8
1
  6
Continuous
 62
     2
100
AcDbLine
 10
726.9166666686365
 20
7.85000038151991
 30
0.0
 11
658.5833333353033
 21
7.85000038151991
 31
0.0
  0
LINE
  5
2BA
330
81
100
AcDbEntity
  8
1
  6
Continuous
 62
     6
100
AcDbLine
 10
726.9166666686365
 20
2.85000038151991
 30
0.0
 11
795.2500000019675
 21
2.85000038151991
 31
0.0
  0
LINE
  5
2BB
330
81
100
AcDbEntity
  8
1
  6
Continuous
 62
     2
100
AcDbLine
 10
726.9166666686365
 20
2.85000038151991
 30
0.0
 11
726.9166666686365
 21
7.85000038151991
 31
0.0
  0
LINE
  5
2BC
330
81
100
AcDbEntity
  8
1
  6
Continuous
 62
     2
100
AcDbLine
 10
795.2500000019675
 20
7.85000038151991
 30
0.0
 11
726.9166666686365
 21
7.85000038151991
 31
0.0
  0
LINE
  5
2BD
330
81
100
AcDbEntity
  8
1
  6
Continuous
 62
     6
100
AcDbLine
 10
400.2500000019692
 20
2.85000038152014
 30
0.0
 11
453.5833333353033
 21
2.85000038152014
 31
0.0
  0
LINE
  5
2BE
330
81
100
AcDbEntity
  8
1
  6
Continuous
 62
     6
100
AcDbLine
 10
795.25000000197
 20
-169.3499996184799
 30
0.0
 11
795.2500000019699
 21
-226.74999961848
 31
0.0
  0
LINE
  5
2BF
330
81
100
AcDbEntity
  8
1
  6
Continuous
 62
     2
100
AcDbLine
 10
795.25000000197
 20
-169.3499996184799
 30
0.0
 11
800.2500000019675
 21
-169.3499996184799
 31
0.0
  0
LINE
  5
2C0
330
81
100
AcDbEntity
  8
1
  6
Continuous
 62
     2
100
AcDbLine
 10
800.2500000019675
 20
-111.9499996184801
 30
0.0
 11
800.2500000019675
 21
-169.3499996184799
 31
0.0
  0
LINE
  5
2C1
330
81
100
AcDbEntity
  8
1
  6
Continuous
 62
     6
100
AcDbLine
 10
795.25000000197
 20
-111.9499996184801
 30
0.0
 11
795.25000000197
 21
-169.3499996184799
 31
0.0
  0
LINE
  5
2C2
330
81
100
AcDbEntity
  8
1
  6
Continuous
 62
     2
100
AcDbLine
 10
795.25000000197
 20
-111.9499996184801
 30
0.0
 11
800.2500000019675
 21
-111.9499996184801
 31
0.0
  0
LINE
  5
2C3
330
81
100
AcDbEntity
  8
1
  6
Continuous
 62
     2
100
AcDbLine
 10
800.2500000019675
 20
-54.54999961848017
 30
0.0
 11
800.2500000019675
 21
-111.9499996184801
 31
0.0
  0
LINE
  5
2C4
330
81
100
AcDbEntity
  8
1
  6
Continuous
 62
     6
100
AcDbLine
 10
795.2500000019679
 20
-54.54999961848017
 30
0.0
 11
795.25000000197
 21
-111.9499996184801
 31
0.0
  0
LINE
  5
2C5
330
81
100
AcDbEntity
  8
1
  6
Continuous
 62
     2
100
AcDbLine
 10
795.2500000019679
 20
-54.54999961848017
 30
0.0
 11
800.2500000019675
 21
-54.54999961848017
 31
0.0
  0
LINE
  5
2C6
330
81
100
AcDbEntity
  8
1
  6
Continuous
 62
     2
100
AcDbLine
 10
800.2500000019675
 20
2.85000038151991
 30
0.0
 11
800.2500000019675
 21
-54.54999961848017
 31
0.0
  0
LINE
  5
2C7
330
81
100
AcDbEntity
  8
1
  6
Continuous
 62
     2
100
AcDbLine
 10
795.2500000019675
 20
2.85000038151991
 30
0.0
 11
800.2500000019675
 21
2.85000038151991
 31
0.0
  0
LINE
  5
2C8
330
81
100
AcDbEntity
  8
1
  6
Continuous
 62
     2
100
AcDbLine
 10
795.2500000019675
 20
2.85000038151991
 30
0.0
 11
795.2500000019675
 21
7.85000038151991
 31
0.0
  0
LINE
  5
2C9
330
81
100
AcDbEntity
  8
1
  6
Continuous
 62
     2
100
AcDbLine
 10
800.2500000019675
 20
7.85000038151991
 30
0.0
 11
800.2500000019675
 21
2.85000038151991
 31
0.0
  0
LINE
  5
2CA
330
81
100
AcDbEntity
  8
1
  6
Continuous
 62
     6
100
AcDbLine
 10
795.2500000019675
 20
2.85000038151991
 30
0.0
 11
795.2500000019679
 21
-54.54999961848017
 31
0.0
  0
LINE
  5
2CB
330
81
100
AcDbEntity
  8
1
  6
Continuous
 62
     2
100
AcDbLine
 10
800.2500000019675
 20
7.85000038151991
 30
0.0
 11
795.2500000019675
 21
7.85000038151991
 31
0.0
  0
LINE
  5
2CC
330
81
100
AcDbEntity
  8
1
  6
Continuous
 62
     2
100
AcDbLine
 10
800.2500000019675
 20
-284.1499996184801
 30
0.0
 11
800.2500000019675
 21
-226.74999961848
 31
0.0
  0
LINE
  5
2CD
330
81
100
AcDbEntity
  8
1
  6
Continuous
 62
     2
100
AcDbLine
 10
800.2500000019675
 20
-284.1499996184801
 30
0.0
 11
800.2500000019675
 21
-289.1499996184801
 31
0.0
  0
LINE
  5
2CE
330
81
100
AcDbEntity
  8
1
  6
Continuous
 62
     2
100
AcDbLine
 10
800.2500000019675
 20
-289.1499996184801
 30
0.0
 11
795.25000000197
 21
-289.1499996184801
 31
0.0
  0
LINE
  5
2CF
330
81
100
AcDbEntity
  8
1
  6
Continuous
 62
     2
100
AcDbLine
 10
658.5833333353033
 20
-289.1499996184801
 30
0.0
 11
726.9166666686365
 21
-289.1499996184801
 31
0.0
  0
LINE
  5
2D0
330
81
100
AcDbEntity
  8
1
  6
Continuous
 62
     2
100
AcDbLine
 10
610.2500000019671
 20
-289.1499996184801
 30
0.0
 11
658.5833333353033
 21
-289.1499996184801
 31
0.0
  0
LINE
  5
2D1
330
81
100
AcDbEntity
  8
1
  6
Continuous
 62
     2
100
AcDbLine
 10
610.2500000019671
 20
-289.1499996184801
 30
0.0
 11
610.2500000019671
 21
-285.1499996184801
 31
0.0
  0
LINE
  5
2D2
330
81
100
AcDbEntity
  8
1
  6
Continuous
 62
     2
100
AcDbLine
 10
610.2500000019671
 20
-289.1499996184801
 30
0.0
 11
590.25000000197
 21
-289.1499996184801
 31
0.0
  0
LINE
  5
2D3
330
81
100
AcDbEntity
  8
1
  6
Continuous
 62
     2
100
AcDbLine
 10
400.2500000019692
 20
-289.1499996184801
 30
0.0
 11
453.5833333353033
 21
-289.1499996184801
 31
0.0
  0
LINE
  5
2D4
330
81
100
AcDbEntity
  8
1
  6
Continuous
 62
     2
100
AcDbLine
 10
400.2500000019692
 20
-289.1499996184801
 30
0.0
 11
400.2500000019692
 21
-285.1499996184801
 31
0.0
  0
LINE
  5
2D5
330
81
100
AcDbEntity
  8
1
  6
Continuous
 62
     2
100
AcDbLine
 10
521.9166666686368
 20
-289.1499996184801
 30
0.0
 11
521.9166666686368
 21
-284.1499996184801
 31
0.0
  0
LINE
  5
2D6
330
81
100
AcDbEntity
  8
1
  6
Continuous
 62
     6
100
AcDbLine
 10
453.5833333353033
 20
-284.1499996184801
 30
0.0
 11
400.2500000019702
 21
-284.1499996184801
 31
0.0
  0
LINE
  5
2D7
330
81
100
AcDbEntity
  8
1
  6
Continuous
 62
     6
100
AcDbLine
 10
453.5833333353033
 20
-284.1499996184801
 30
0.0
 11
521.9166666686368
 21
-284.1499996184801
 31
0.0
  0
LINE
  5
2D8
330
81
100
AcDbEntity
  8
1
  6
Continuous
 62
     2
100
AcDbLine
 10
453.5833333353033
 20
-289.1499996184801
 30
0.0
 11
521.9166666686368
 21
-289.1499996184801
 31
0.0
  0
LINE
  5
2D9
330
81
100
AcDbEntity
  8
1
  6
Continuous
 62
     2
100
AcDbLine
 10
453.5833333353033
 20
-289.1499996184801
 30
0.0
 11
453.5833333353033
 21
-284.1499996184801
 31
0.0
  0
LINE
  5
2DA
330
81
100
AcDbEntity
  8
1
  6
Continuous
 62
     2
100
AcDbLine
 10
400.2500000019692
 20
-289.1499996184801
 30
0.0
 11
380.2500000019691
 21
-289.1499996184801
 31
0.0
  0
LINE
  5
2DB
330
81
100
AcDbEntity
  8
1
  6
Continuous
 62
     2
100
AcDbLine
 10
800.2500000019675
 20
-226.74999961848
 30
0.0
 11
795.2500000019699
 21
-226.74999961848
 31
0.0
  0
LINE
  5
2DC
330
81
100
AcDbEntity
  8
1
  6
Continuous
 62
     2
100
AcDbLine
 10
800.2500000019675
 20
-226.74999961848
 30
0.0
 11
800.2500000019675
 21
-169.3499996184799
 31
0.0
  0
LINE
  5
2DD
330
81
100
AcDbEntity
  8
1
  6
Continuous
 62
     2
100
AcDbLine
 10
590.25000000197
 20
-289.1499996184801
 30
0.0
 11
590.25000000197
 21
-284.1499996184801
 31
0.0
  0
LINE
  5
2DE
330
81
100
AcDbEntity
  8
1
  6
Continuous
 62
     2
100
AcDbLine
 10
658.5833333353033
 20
-289.1499996184801
 30
0.0
 11
658.5833333353033
 21
-284.149999618483
 31
0.0
  0
LINE
  5
2DF
330
81
100
AcDbEntity
  8
1
  6
Continuous
 62
     2
100
AcDbLine
 10
726.9166666686365
 20
-289.1499996184801
 30
0.0
 11
726.9166666686365
 21
-284.1499996184801
 31
0.0
  0
LINE
  5
2E0
330
81
100
AcDbEntity
  8
1
  6
Continuous
 62
     2
100
AcDbLine
 10
726.9166666686365
 20
-289.1499996184801
 30
0.0
 11
795.25000000197
 21
-289.1499996184801
 31
0.0
  0
LINE
  5
2E1
330
81
100
AcDbEntity
  8
1
  6
Continuous
 62
     2
100
AcDbLine
 10
590.25000000197
 20
-289.1499996184801
 30
0.0
 11
521.9166666686368
 21
-289.1499996184801
 31
0.0
  0
LINE
  5
2E2
330
81
100
AcDbEntity
  8
1
  6
Continuous
 62
     6
100
AcDbLine
 10
795.2500000019689
 20
-262.8999996184807
 30
0.0
 11
795.2500000019699
 21
-226.74999961848
 31
0.0
  0
LINE
  5
2E3
330
81
100
AcDbEntity
  8
1
  6
Continuous
 62
     6
100
AcDbLine
 10
795.25000000197
 20
-267.1499996184807
 30
0.0
 11
795.2500000019689
 21
-262.8999996184807
 31
0.0
  0
LINE
  5
2E4
330
81
100
AcDbEntity
  8
1
  6
Continuous
 62
     6
100
AcDbLine
 10
795.2500000019695
 20
-275.6499996184807
 30
0.0
 11
795.25000000197
 21
-267.1499996184807
 31
0.0
  0
LINE
  5
2E5
330
81
100
AcDbEntity
  8
1
  6
Continuous
 62
     6
100
AcDbLine
 10
726.9166666686365
 20
-284.1499996184801
 30
0.0
 11
795.2500000019699
 21
-284.1499996184806
 31
0.0
  0
ARC
  5
2E6
102
{ACAD_REACTORS
330
361
330
362
102
}
330
81
100
AcDbEntity
  8
0
  6
Continuous
 62
     2
100
AcDbCircle
 10
678.0766964998696
 20
-278.6422758018149
 30
0.0
 40
4.852596863497994
100
AcDbArc
 50
74.02000874164679
 51
84.84185523037603
  0
ARC
  5
2E7
102
{ACAD_REACTORS
330
361
330
362
102
}
330
81
100
AcDbEntity
  8
0
  6
Continuous
 62
     2
100
AcDbCircle
 10
678.6527371086233
 20
-275.4865154459306
 30
0.0
 40
0.9059297849853049
100
AcDbArc
 50
71.5519238818569
 51
113.3722778881323
  0
ARC
  5
2E8
102
{ACAD_REACTORS
330
361
330
362
102
}
330
81
100
AcDbEntity
  8
0
  6
Continuous
 62
     2
100
AcDbCircle
 10
678.4962970759212
 20
-275.5346662858976
 30
0.0
 40
0.5115800601948012
100
AcDbArc
 50
208.5214732576884
 51
246.6277221118278
  0
ARC
  5
2E9
102
{ACAD_REACTORS
330
361
330
362
102
}
330
81
100
AcDbEntity
  8
0
  6
Continuous
 62
     2
100
AcDbCircle
 10
678.6527371086233
 20
-275.1726742671876
 30
0.0
 40
0.9059297849848895
100
AcDbArc
 50
246.6277221118663
 51
288.4480761181568
  0
ARC
  5
2EA
102
{ACAD_REACTORS
330
361
330
362
102
}
330
81
100
AcDbEntity
  8
0
  6
Continuous
 62
     2
100
AcDbCircle
 10
678.2345693749623
 20
-273.9191284911504
 30
0.0
 40
2.227384008972701
100
AcDbArc
 50
288.448076118137
 51
301.9309089499669
  0
ARC
  5
2EB
102
{ACAD_REACTORS
330
35D
330
35E
102
}
330
81
100
AcDbEntity
  8
0
  6
Continuous
 62
     2
100
AcDbCircle
 10
673.0094956423557
 20
-273.1866264622364
 30
0.0
 40
0.9118481501444062
100
AcDbArc
 50
295.374008678182
 51
64.62599132181036
  0
ARC
  5
2EC
102
{ACAD_REACTORS
330
35D
330
35E
102
}
330
81
100
AcDbEntity
  8
0
  6
Continuous
 62
     2
100
AcDbCircle
 10
673.5355383404436
 20
-271.4719495737618
 30
0.0
 40
0.3157169230761285
100
AcDbArc
 50
90.18896704258201
 51
180.0
  0
ARC
  5
2ED
102
{ACAD_REACTORS
330
35F
330
360
102
}
330
81
100
AcDbEntity
  8
0
  6
Continuous
 62
     2
100
AcDbCircle
 10
694.7456685532778
 20
-275.542478407603
 30
0.0
 40
0.9545230068261503
100
AcDbArc
 50
90.0
 51
109.3371432194254
  0
ARC
  5
2EE
102
{ACAD_REACTORS
330
35F
330
360
102
}
330
81
100
AcDbEntity
  8
0
  6
Continuous
 62
     2
100
AcDbCircle
 10
694.9763558132556
 20
-275.3295948565591
 30
0.0
 40
0.9410597353351122
100
AcDbArc
 50
151.4785267423559
 51
208.5214732576654
  0
ARC
  5
2EF
102
{ACAD_REACTORS
330
35F
330
360
102
}
330
81
100
AcDbEntity
  8
0
  6
Continuous
 62
     2
100
AcDbCircle
 10
694.7554385878773
 20
-275.1726742671876
 30
0.0
 40
0.9059297849852503
100
AcDbArc
 50
246.6277221118135
 51
288.448076118076
  0
ARC
  5
2F0
102
{ACAD_REACTORS
330
35F
330
360
102
}
330
81
100
AcDbEntity
  8
0
  6
Continuous
 62
     2
100
AcDbCircle
 10
694.3372708542153
 20
-273.9191284911508
 30
0.0
 40
2.22738400897288
100
AcDbArc
 50
288.4480761181323
 51
301.930908949939
  0
ARC
  5
2F1
102
{ACAD_REACTORS
330
35F
330
360
102
}
330
81
100
AcDbEntity
  8
0
  6
Continuous
 62
     2
100
AcDbCircle
 10
694.1793979791225
 20
-272.0169139113025
 30
0.0
 40
4.852596863498941
100
AcDbArc
 50
275.1581447696365
 51
285.9799912583381
  0
ARC
  5
2F2
102
{ACAD_REACTORS
330
35F
330
360
102
}
330
81
100
AcDbEntity
  8
0
  6
Continuous
 62
     2
100
AcDbCircle
 10
694.4682540738584
 20
-275.2168044945242
 30
0.0
 40
1.639695123940421
100
AcDbArc
 50
195.0618917771015
 51
275.1581447696772
  0
ARC
  5
2F3
102
{ACAD_REACTORS
330
357
330
358
102
}
330
81
100
AcDbEntity
  8
0
  6
Continuous
 62
     2
100
AcDbCircle
 10
678.7400407621673
 20
-271.4988652598126
 30
0.0
 40
1.055365641333594
100
AcDbArc
 50
270.0
 51
90.0
  0
ARC
  5
2F4
102
{ACAD_REACTORS
330
35D
330
35E
102
}
330
81
100
AcDbEntity
  8
0
  6
Continuous
 62
     2
100
AcDbCircle
 10
670.9599896539119
 20
-275.8282271398307
 30
0.0
 40
0.3157169230756836
100
AcDbArc
 50
180.0
 51
270.0
  0
ARC
  5
2F5
102
{ACAD_REACTORS
330
35D
330
35E
102
}
330
81
100
AcDbEntity
  8
0
  6
Continuous
 62
     2
100
AcDbCircle
 10
672.4358229149213
 20
-271.4717720971136
 30
0.0
 40
0.3157169230767067
100
AcDbArc
 50
0.0
 51
90.0
  0
ARC
  5
2F6
102
{ACAD_REACTORS
330
35D
330
35E
102
}
330
81
100
AcDbEntity
  8
0
  6
Continuous
 62
     2
100
AcDbCircle
 10
672.4358229149213
 20
-272.0757967161742
 30
0.0
 40
0.3157169230761172
100
AcDbArc
 50
295.1944106485628
 51
0.0
  0
ARC
  5
2F7
102
{ACAD_REACTORS
330
35D
330
35E
102
}
330
81
100
AcDbEntity
  8
0
  6
Continuous
 62
     2
100
AcDbCircle
 10
672.4358229149213
 20
-275.8282271398307
 30
0.0
 40
0.3157169230767067
100
AcDbArc
 50
270.0
 51
0.0
  0
ARC
  5
2F8
102
{ACAD_REACTORS
330
35D
330
35E
102
}
330
81
100
AcDbEntity
  8
0
  6
Continuous
 62
     2
100
AcDbCircle
 10
670.3660949771653
 20
-270.8677442338808
 30
0.0
 40
0.4242446153837705
100
AcDbArc
 50
90.0
 51
180.0
  0
ARC
  5
2F9
102
{ACAD_REACTORS
330
35D
330
35E
102
}
330
81
100
AcDbEntity
  8
0
  6
Continuous
 62
     2
100
AcDbCircle
 10
675.8394070678822
 20
-270.8677442338808
 30
0.0
 40
0.4242446153838273
100
AcDbArc
 50
0.0
 51
90.0
  0
ARC
  5
2FA
102
{ACAD_REACTORS
330
35D
330
35E
102
}
330
81
100
AcDbEntity
  8
0
  6
Continuous
 62
     2
100
AcDbCircle
 10
675.8394070678822
 20
-276.4322550030811
 30
0.0
 40
0.424244615383202
100
AcDbArc
 50
270.0
 51
0.0
  0
ARC
  5
2FB
102
{ACAD_REACTORS
330
35B
330
35C
102
}
330
81
100
AcDbEntity
  8
0
  6
Continuous
 62
     2
100
AcDbCircle
 10
685.0577909549737
 20
-271.9704043803847
 30
0.0
 40
0.7717997786794905
100
AcDbArc
 50
321.8795802028405
 51
38.12041979716276
  0
ARC
  5
2FC
102
{ACAD_REACTORS
330
35B
330
35C
102
}
330
81
100
AcDbEntity
  8
0
  6
Continuous
 62
     2
100
AcDbCircle
 10
685.2575309913199
 20
-272.1271355585052
 30
0.0
 40
0.5179085730134564
100
AcDbArc
 50
218.1204197971334
 51
321.8795802028588
  0
ARC
  5
2FD
102
{ACAD_REACTORS
330
359
330
35A
102
}
330
81
100
AcDbEntity
  8
0
  6
Continuous
 62
     2
100
AcDbCircle
 10
681.5775234023596
 20
-275.3295948565591
 30
0.0
 40
1.458034083652067
100
AcDbArc
 50
297.5481481757035
 51
62.4518518242996
  0
ARC
  5
2FE
102
{ACAD_REACTORS
330
359
330
35A
102
}
330
81
100
AcDbEntity
  8
0
  6
Continuous
 62
     2
100
AcDbCircle
 10
681.015643618693
 20
-275.3295948565591
 30
0.0
 40
1.458034083651693
100
AcDbArc
 50
117.5481481756608
 51
242.4518518243361
  0
ARC
  5
2FF
102
{ACAD_REACTORS
330
359
330
35A
102
}
330
81
100
AcDbEntity
  8
0
  6
Continuous
 62
     2
100
AcDbCircle
 10
681.2965835105264
 20
-275.8681698668619
 30
0.0
 40
2.065479772208744
100
AcDbArc
 50
62.45185182430892
 51
117.5481481756659
  0
ARC
  5
300
102
{ACAD_REACTORS
330
359
330
35A
102
}
330
81
100
AcDbEntity
  8
0
  6
Continuous
 62
     2
100
AcDbCircle
 10
681.2965835105264
 20
-274.7910198462557
 30
0.0
 40
2.065479772208624
100
AcDbArc
 50
242.4518518243392
 51
297.548148175686
  0
ARC
  5
301
102
{ACAD_REACTORS
330
35B
330
35C
102
}
330
81
100
AcDbEntity
  8
0
  6
Continuous
 62
     2
100
AcDbCircle
 10
685.4572710276661
 20
-271.9704043803847
 30
0.0
 40
0.7717997786797044
100
AcDbArc
 50
141.8795802028477
 51
218.120419797149
  0
ARC
  5
302
102
{ACAD_REACTORS
330
35B
330
35C
102
}
330
81
100
AcDbEntity
  8
0
  6
Continuous
 62
     2
100
AcDbCircle
 10
685.2575309913199
 20
-271.8136732022642
 30
0.0
 40
0.517908573013402
100
AcDbArc
 50
38.12041979714616
 51
141.8795802028616
  0
ARC
  5
303
102
{ACAD_REACTORS
330
35D
330
35E
102
}
330
81
100
AcDbEntity
  8
0
  6
Continuous
 62
     2
100
AcDbCircle
 10
670.3660949771653
 20
-276.4322550030811
 30
0.0
 40
0.4242446153828041
100
AcDbArc
 50
180.0
 51
270.0
  0
ARC
  5
304
102
{ACAD_REACTORS
330
35D
330
35E
102
}
330
81
100
AcDbEntity
  8
0
  6
Continuous
 62
     2
100
AcDbCircle
 10
672.4358229149213
 20
-274.2974562082991
 30
0.0
 40
0.3157169230767067
100
AcDbArc
 50
0.0
 51
64.8055893514504
  0
ARC
  5
305
102
{ACAD_REACTORS
330
35D
330
35E
102
}
330
81
100
AcDbEntity
  8
0
  6
Continuous
 62
     2
100
AcDbCircle
 10
672.9584073624964
 20
-273.1866264622364
 30
0.0
 40
0.9118975235576555
100
AcDbArc
 50
115.1944106485211
 51
244.8055893514865
  0
ARC
  5
306
102
{ACAD_REACTORS
330
35D
330
35E
102
}
330
81
100
AcDbEntity
  8
0
  6
Continuous
 62
     2
100
AcDbCircle
 10
670.9599896539119
 20
-271.4717720971136
 30
0.0
 40
0.3157169230761383
100
AcDbArc
 50
90.0
 51
180.0
  0
ARC
  5
307
102
{ACAD_REACTORS
330
357
330
358
102
}
330
81
100
AcDbEntity
  8
0
  6
Continuous
 62
     2
100
AcDbCircle
 10
678.2985682359289
 20
-271.4594692885901
 30
0.0
 40
0.3528638246710898
100
AcDbArc
 50
270.0
 51
90.0
  0
ARC
  5
308
102
{ACAD_REACTORS
330
35B
330
35C
102
}
330
81
100
AcDbEntity
  8
0
  6
Continuous
 62
     2
100
AcDbCircle
 10
685.0412589811547
 20
-271.9704043803847
 30
0.0
 40
1.526904761905826
100
AcDbArc
 50
90.0
 51
270.0
  0
ARC
  5
309
102
{ACAD_REACTORS
330
35F
330
360
102
}
330
81
100
AcDbEntity
  8
0
  6
Continuous
 62
     2
100
AcDbCircle
 10
694.4682540738584
 20
-275.4423852185939
 30
0.0
 40
1.639695123940101
100
AcDbArc
 50
90.0
 51
164.9381082228985
  0
ARC
  5
30A
102
{ACAD_REACTORS
330
35F
330
360
102
}
330
81
100
AcDbEntity
  8
0
  6
Continuous
 62
     2
100
AcDbCircle
 10
694.0491262303967
 20
-275.3295948565591
 30
0.0
 40
1.205656168392933
100
AcDbArc
 50
164.9381082229047
 51
195.0618917770927
  0
ARC
  5
30B
102
{ACAD_REACTORS
330
35F
330
360
102
}
330
81
100
AcDbEntity
  8
0
  6
Continuous
 62
     2
100
AcDbCircle
 10
694.5989985551741
 20
-275.5346662858976
 30
0.0
 40
0.5115800601960715
100
AcDbArc
 50
208.5214732576836
 51
246.6277221118395
  0
ARC
  5
30C
102
{ACAD_REACTORS
330
35F
330
360
102
}
330
81
100
AcDbEntity
  8
0
  6
Continuous
 62
     2
100
AcDbCircle
 10
694.5989985551741
 20
-275.12452342722
 30
0.0
 40
0.5115800601944585
100
AcDbArc
 50
109.3371432194802
 51
151.4785267424115
  0
ARC
  5
30D
102
{ACAD_REACTORS
330
35D
330
35E
102
}
330
81
100
AcDbEntity
  8
0
  6
Continuous
 62
     2
100
AcDbCircle
 10
673.5355383404436
 20
-274.8776194688998
 30
0.0
 40
0.3157169230768204
100
AcDbArc
 50
180.0
 51
269.811032957418
  0
ARC
  5
30E
102
{ACAD_REACTORS
330
35D
330
35E
102
}
330
81
100
AcDbEntity
  8
0
  6
Continuous
 62
     2
100
AcDbCircle
 10
673.5411544757536
 20
-273.1747845213308
 30
0.0
 40
2.01856113193321
100
AcDbArc
 50
269.811032957581
 51
90.188967042419
  0
ARC
  5
30F
102
{ACAD_REACTORS
330
35D
330
35E
102
}
330
81
100
AcDbEntity
  8
0
  6
Continuous
 62
     2
100
AcDbCircle
 10
673.5355383404436
 20
-272.0774848622686
 30
0.0
 40
0.3157169230768204
100
AcDbArc
 50
180.0
 51
244.6259913216258
  0
ARC
  5
310
102
{ACAD_REACTORS
330
35D
330
35E
102
}
330
81
100
AcDbEntity
  8
0
  6
Continuous
 62
     2
100
AcDbCircle
 10
673.5355383404436
 20
-274.2957680622047
 30
0.0
 40
0.3157169230764936
100
AcDbArc
 50
115.3740086783609
 51
180.0
  0
ARC
  5
311
102
{ACAD_REACTORS
330
361
330
362
102
}
330
81
100
AcDbEntity
  8
0
  6
Continuous
 62
     2
100
AcDbCircle
 10
678.3655525946056
 20
-275.4423852185939
 30
0.0
 40
1.639695123940496
100
AcDbArc
 50
84.8418552303663
 51
164.9381082228913
  0
ARC
  5
312
102
{ACAD_REACTORS
330
361
330
362
102
}
330
81
100
AcDbEntity
  8
0
  6
Continuous
 62
     2
100
AcDbCircle
 10
677.9464247511427
 20
-275.3295948565591
 30
0.0
 40
1.205656168390957
100
AcDbArc
 50
164.9381082228794
 51
195.0618917770945
  0
ARC
  5
313
102
{ACAD_REACTORS
330
361
330
362
102
}
330
81
100
AcDbEntity
  8
0
  6
Continuous
 62
     2
100
AcDbCircle
 10
678.3655525946056
 20
-275.2168044945242
 30
0.0
 40
1.639695123939519
100
AcDbArc
 50
195.0618917770914
 51
275.1581447696353
  0
ARC
  5
314
102
{ACAD_REACTORS
330
361
330
362
102
}
330
81
100
AcDbEntity
  8
0
  6
Continuous
 62
     2
100
AcDbCircle
 10
678.0766964998696
 20
-272.0169139113025
 30
0.0
 40
4.852596863498329
100
AcDbArc
 50
275.1581447696237
 51
285.9799912583525
  0
ARC
  5
315
102
{ACAD_REACTORS
330
361
330
362
102
}
330
81
100
AcDbEntity
  8
0
  6
Continuous
 62
     2
100
AcDbCircle
 10
678.8736543340016
 20
-275.3295948565591
 30
0.0
 40
0.9410597353333044
100
AcDbArc
 50
151.4785267422685
 51
208.5214732577011
  0
ARC
  5
316
102
{ACAD_REACTORS
330
361
330
362
102
}
330
81
100
AcDbEntity
  8
0
  6
Continuous
 62
     2
100
AcDbCircle
 10
678.4962970759212
 20
-275.12452342722
 30
0.0
 40
0.5115800601948927
100
AcDbArc
 50
113.372277888195
 51
151.4785267423116
  0
ARC
  5
317
102
{ACAD_REACTORS
330
361
330
362
102
}
330
81
100
AcDbEntity
  8
0
  6
Continuous
 62
     2
100
AcDbCircle
 10
678.2345693749623
 20
-276.7400612219672
 30
0.0
 40
2.227384008973525
100
AcDbArc
 50
58.0690910500346
 51
71.55192388186398
  0
ARC
  5
318
102
{ACAD_REACTORS
330
359
330
35A
102
}
330
81
100
AcDbEntity
  8
0
  6
Continuous
 62
     2
100
AcDbCircle
 10
681.2965835105264
 20
-275.1728636784386
 30
0.0
 40
0.5179085730132582
100
AcDbArc
 50
38.12041979716663
 51
141.8795802028567
  0
ARC
  5
319
102
{ACAD_REACTORS
330
359
330
35A
102
}
330
81
100
AcDbEntity
  8
0
  6
Continuous
 62
     2
100
AcDbCircle
 10
681.4963235468724
 20
-275.3295948565591
 30
0.0
 40
0.7717997786795606
100
AcDbArc
 50
141.8795802028339
 51
218.1204197971628
  0
ARC
  5
31A
102
{ACAD_REACTORS
330
359
330
35A
102
}
330
81
100
AcDbEntity
  8
0
  6
Continuous
 62
     2
100
AcDbCircle
 10
681.2965835105264
 20
-275.4863260346789
 30
0.0
 40
0.5179085730139126
100
AcDbArc
 50
218.1204197971978
 51
321.8795802027789
  0
ARC
  5
31B
102
{ACAD_REACTORS
330
359
330
35A
102
}
330
81
100
AcDbEntity
  8
0
  6
Continuous
 62
     2
100
AcDbCircle
 10
681.09684347418
 20
-275.3295948565591
 30
0.0
 40
0.7717997786795255
100
AcDbArc
 50
321.8795802028372
 51
38.12041979716608
  0
CIRCLE
  5
31C
330
81
100
AcDbEntity
  8
1
  6
Continuous
 62
     2
100
AcDbCircle
 10
678.4418503617825
 20
-263.0249996184808
 30
0.0
 40
2.5
  0
CIRCLE
  5
31D
330
81
100
AcDbEntity
  8
1
  6
Continuous
 62
     2
100
AcDbCircle
 10
678.4418503617825
 20
-263.0249996184808
 30
0.0
 40
1.25
  0
CIRCLE
  5
31E
102
{ACAD_REACTORS
330
35D
330
35E
102
}
330
81
100
AcDbEntity
  8
0
  6
Continuous
 62
     2
100
AcDbCircle
 10
672.9856806276829
 20
-273.1866264622364
 30
0.0
 40
0.4709789327785074
  0
MTEXT
  5
31F
330
81
100
AcDbEntity
  8
1
 62
     3
100
AcDbMText
 10
398.6726733133231
 20
-284.1230855189795
 30
0.0
 40
1.8
 41
0.0
 71
     7
 72
     1
  3
Weitergabe sowie Vervielf\U+00e4ltigung dieses Dokuments, Verwertung und \PMitteilung seines Inhalts sind verboten, soweit nicht ausdr\U+00fccklich gestattet. \PZuwiderhandlungen verpflichten zu Schadenersatz. Alle Rechte f\U+00fcr den Fall\Pder Pat
  1
ent-, Gebrauchsmuster- oder Designeintragung vorbehalten.
  7
CONVERTER_11
 11
0.0
 21
1.0
 31
0.0
 73
     1
 44
0.99639855942377
  0
MTEXT
  5
320
330
81
100
AcDbEntity
  8
1
 62
     3
100
AcDbMText
 10
398.5184670022292
 20
-111.1637155048264
 30
0.0
 40
1.8
 41
0.0
 71
     7
 72
     1
  3
Transfer or duplication of this document as well as the utilisation or\Pcommunication of its content are not permitted unless express consent\Pis granted. Violations give rise to claims for damages. All rights reserved\Pin case of patent, utility mo
  1
del or design patent registrations.
  7
CONVERTER_11
 11
0.0
 21
1.0
 31
0.0
 73
     1
 44
0.99639855942377
  0
TEXT
  5
321
330
81
100
AcDbEntity
  8
1
 62
     2
100
AcDbText
 10
684.9051954752198
 20
-282.9090168334722
 30
0.0
 40
1.8
  1
of
 41
0.9
  7
CONVERTER_11
100
AcDbText
  0
TEXT
  5
322
330
81
100
AcDbEntity
  8
1
 62
     2
100
AcDbText
 10
666.70519547522
 20
-282.9090168334724
 30
0.0
 40
1.8
  1
page
 41
0.9
  7
CONVERTER_11
100
AcDbText
  0
TEXT
  5
323
330
81
100
AcDbEntity
  8
1
 62
     2
100
AcDbText
 10
675.351460445562
 20
-282.9492482722826
 30
0.0
 40
1.8
  1
1
 41
0.9
  7
CONVERTER_11
100
AcDbText
  0
TEXT
  5
324
330
81
100
AcDbEntity
  8
1
 62
     2
100
AcDbText
 10
690.1405042850336
 20
-282.8999996184807
 30
0.0
 40
1.8
  1
1
 41
0.9
  7
CONVERTER_11
100
AcDbText
  0
MTEXT
  5
326
330
81
100
AcDbEntity
  8
1
 62
     7
100
AcDbMText
 10
748.6775977385954
 20
-280.8999996184805
 30
0.0
 40
3.0
 41
0.0
 71
     5
 72
     1
  1
EB 56-18
  7
CONVERTER_12
 73
     1
 44
1.20048019207683
  0
MTEXT
  5
327
330
81
100
AcDbEntity
  8
1
 62
     2
100
AcDbMText
 10
703.10519547522
 20
-276.6499996184807
 30
0.0
 40
1.8
 41
0.0
 71
     1
 72
     1
  1
description
  7
CONVERTER_11
 73
     1
 44
1.20048019207683
  0
MTEXT
  5
328
330
81
100
AcDbEntity
  8
1
 62
     3
100
AcDbMText
 10
691.9051954752199
 20
-263.0249996184807
 30
0.0
 40
2.5
 41
0.0
 71
     5
 72
     1
  1
DIN A3
  7
CONVERTER_11
 73
     1
 44
1.20048019207683
  0
MTEXT
  5
329
330
81
100
AcDbEntity
  8
1
 62
     2
100
AcDbMText
 10
631.2941722060104
 20
-271.3999996184818
 30
0.0
 40
2.0
 41
0.0
 71
     5
 72
     1
  1
General Information\P- Simplified representation\P- Document excluded from change process\P- Linear dimensions [mm]
  7
CONVERTER_11
 73
     1
 44
1.20048019207683
  0
TEXT
  5
32A
330
81
100
AcDbEntity
  8
1
 62
     7
100
AcDbText
 10
703.6051954752197
 20
-274.3499996184806
 30
0.0
 40
2.5
  1
3009299
 41
0.81
  7
CONVERTER_12
100
AcDbText
  0
MTEXT
  5
32B
330
81
100
AcDbEntity
  8
1
 62
     2
100
AcDbMText
 10
703.2051954752199
 20
-268.1499996184807
 30
0.0
 40
1.8
 41
0.0
 71
     1
 72
     1
  1
ident.-No.
  7
CONVERTER_11
 73
     1
 44
1.20048019207683
  0
MTEXT
  5
32C
330
81
100
AcDbEntity
  8
1
 62
     2
100
AcDbMText
 10
787.4315917202927
 20
-259.6499996184807
 30
0.0
 40
1.8
 41
0.0
 71
     1
 72
     1
  1
scale
  7
CONVERTER_11
 73
     1
 44
1.20048019207683
  0
MTEXT
  5
32E
330
81
100
AcDbEntity
  8
1
 62
     3
100
AcDbMText
 10
790.7907958611322
 20
-265.8499996184806
 30
0.0
 40
2.5
 41
0.0
 71
     8
 72
     1
  1
1:1
  7
CONVERTER_13
 73
     1
 44
1.32052821128451
  0
TEXT
  5
32F
330
81
100
AcDbEntity
  8
1
 62
     7
100
AcDbText
 10
703.2051954752199
 20
-265.8499996184806
 30
0.0
 40
2.5
  1
40216139
 41
0.81
  7
CONVERTER_12
100
AcDbText
  0
MTEXT
  5
331
330
81
100
AcDbEntity
  8
1
 62
     2
100
AcDbMText
 10
703.2051954752199
 20
-259.6499996184807
 30
0.0
 40
1.8
 41
0.0
 71
     1
 72
     1
  1
document-No. / RI
  7
CONVERTER_14
 73
     1
 44
1.32052821128451
  0
TEXT
  5
332
330
81
100
AcDbEntity
  8
1
 62
     3
100
AcDbText
 10
731.0051954752199
 20
-274.3499996184806
 30
0.0
 40
2.5
  1
TECDOC 2D_Productdrawing
 41
0.81
  7
CONVERTER_12
100
AcDbText
  0
MTEXT
  5
333
330
81
100
AcDbEntity
  8
1
 62
     2
100
AcDbMText
 10
731.0051954752199
 20
-268.1499996184807
 30
0.0
 40
1.8
 41
0.0
 71
     1
 72
     1
  1
document-type
  7
CONVERTER_11
 73
     1
 44
1.20048019207683
  0
MTEXT
  5
334
330
81
100
AcDbEntity
  8
1
 62
     2
100
AcDbMText
 10
760.8315917202929
 20
-259.6499996184807
 30
0.0
 40
1.8
 41
0.0
 71
     1
 72
     1
  1
date
  7
CONVERTER_11
 73
     1
 44
1.32052821128451
  0
TEXT
  5
335
330
81
100
AcDbEntity
  8
1
 62
     3
100
AcDbText
 10
760.8315917202929
 20
-265.8499996184806
 30
0.0
 40
2.5
  1
13.02.2018
 41
0.81
  7
CONVERTER_12
100
AcDbText
  0
TEXT
  5
336
330
81
100
AcDbEntity
  8
1
 62
     7
100
AcDbText
 10
723.2351076942757
 20
-265.8499996184806
 30
0.0
 40
2.5
  1
00
 41
0.81
  7
CONVERTER_12
100
AcDbText
  0
TEXT
  5
337
330
81
100
AcDbEntity
  8
1
 62
     7
100
AcDbText
 10
721.0787431972337
 20
-265.8499996184806
 30
0.0
 40
2.5
  1
/
 41
0.9
  7
CONVERTER_11
100
AcDbText
  0
TEXT
  5
338
330
81
100
AcDbEntity
  8
1
 62
     7
100
AcDbText
 10
418.2500000019702
 20
3.85000038152014
 30
0.0
 40
2.5
  1
1
 41
0.9
  7
CONVERTER_11
100
AcDbText
  0
TEXT
  5
339
330
81
100
AcDbEntity
  8
1
 62
     7
100
AcDbText
 10
486.5833333353033
 20
3.85000038152014
 30
0.0
 40
2.5
  1
2
 41
0.9
  7
CONVERTER_11
100
AcDbText
  0
TEXT
  5
33A
330
81
100
AcDbEntity
  8
1
 62
     7
100
AcDbText
 10
554.9166666686368
 20
3.85000038152014
 30
0.0
 40
2.5
  1
3
 41
0.9
  7
CONVERTER_11
100
AcDbText
  0
TEXT
  5
33B
330
81
100
AcDbEntity
  8
1
 62
     7
100
AcDbText
 10
623.25000000197
 20
3.85000038152014
 30
0.0
 40
2.5
  1
4
 41
0.9
  7
CONVERTER_11
100
AcDbText
  0
TEXT
  5
33C
330
81
100
AcDbEntity
  8
1
 62
     7
100
AcDbText
 10
691.5833333353033
 20
3.85000038152014
 30
0.0
 40
2.5
  1
5
 41
0.9
  7
CONVERTER_11
100
AcDbText
  0
TEXT
  5
33D
330
81
100
AcDbEntity
  8
1
 62
     7
100
AcDbText
 10
759.9166666686365
 20
3.85000038152014
 30
0.0
 40
2.5
  1
6
 41
0.9
  7
CONVERTER_11
100
AcDbText
  0
TEXT
  5
33E
330
81
100
AcDbEntity
  8
1
 62
     7
100
AcDbText
 10
796.25000000197
 20
-27.04999961848018
 30
0.0
 40
2.5
  1
A
 41
0.9
  7
CONVERTER_11
100
AcDbText
  0
TEXT
  5
33F
330
81
100
AcDbEntity
  8
1
 62
     7
100
AcDbText
 10
796.25000000197
 20
-84.44999961848006
 30
0.0
 40
2.5
  1
B
 41
0.9
  7
CONVERTER_11
100
AcDbText
  0
TEXT
  5
340
330
81
100
AcDbEntity
  8
1
 62
     7
100
AcDbText
 10
796.25000000197
 20
-141.8499996184799
 30
0.0
 40
2.5
  1
C
 41
0.9
  7
CONVERTER_11
100
AcDbText
  0
TEXT
  5
341
330
81
100
AcDbEntity
  8
1
 62
     7
100
AcDbText
 10
796.25000000197
 20
-199.24999961848
 30
0.0
 40
2.5
  1
D
 41
0.9
  7
CONVERTER_11
100
AcDbText
  0
TEXT
  5
342
330
81
100
AcDbEntity
  8
1
 62
     7
100
AcDbText
 10
486.5833333353033
 20
-288.1499996184801
 30
0.0
 40
2.5
  1
2
 41
0.9
  7
CONVERTER_11
100
AcDbText
  0
TEXT
  5
343
330
81
100
AcDbEntity
  8
1
 62
     7
100
AcDbText
 10
418.2500000019702
 20
-288.1499996184801
 30
0.0
 40
2.5
  1
1
 41
0.9
  7
CONVERTER_11
100
AcDbText
  0
TEXT
  5
344
330
81
100
AcDbEntity
  8
1
 62
     7
100
AcDbText
 10
796.25000000197
 20
-256.6499996184801
 30
0.0
 40
2.5
  1
E
 41
0.9
  7
CONVERTER_11
100
AcDbText
  0
TEXT
  5
345
330
81
100
AcDbEntity
  8
1
 62
     7
100
AcDbText
 10
554.9166666686368
 20
-288.1499996184801
 30
0.0
 40
2.5
  1
3
 41
0.9
  7
CONVERTER_11
100
AcDbText
  0
TEXT
  5
346
330
81
100
AcDbEntity
  8
1
 62
     7
100
AcDbText
 10
623.25000000197
 20
-288.1499996184801
 30
0.0
 40
2.5
  1
4
 41
0.9
  7
CONVERTER_11
100
AcDbText
  0
TEXT
  5
347
330
81
100
AcDbEntity
  8
1
 62
     7
100
AcDbText
 10
691.5833333353031
 20
-288.1499996184801
 30
0.0
 40
2.5
  1
5
 41
0.9
  7
CONVERTER_11
100
AcDbText
  0
TEXT
  5
348
330
81
100
AcDbEntity
  8
1
 62
     7
100
AcDbText
 10
759.9166666686365
 20
-288.1499996184801
 30
0.0
 40
2.5
  1
6
 41
0.9
  7
CONVERTER_11
100
AcDbText
  0
HATCH
  5
349
330
81
100
AcDbEntity
  8
1
  6
Continuous
 62
     2
100
AcDbHatch
 10
0.0
 20
0.0
 30
0.0
210
0.0
220
0.0
230
1.0
  2
CUSTOM0
 70
     0
 71
     1
 91
        1
 92
        1
 93
       12
 72
     1
 10
683.3726961881811
 20
-273.49730914229
 11
682.1799034860146
 21
-273.49730914229
 72
     1
 10
682.1799034860146
 20
-273.49730914229
 11
682.1799034860146
 21
-272.3630370334463
 72
     1
 10
682.1799034860146
 20
-272.3630370334463
 11
681.1302459081072
 21
-272.3630370334463
 72
     1
 10
681.1302459081072
 20
-272.3630370334463
 11
681.1302459081072
 21
-273.49730914229
 72
     1
 10
681.1302459081072
 20
-273.49730914229
 11
679.9374532059406
 21
-273.49730914229
 72
     1
 10
679.9374532059406
 20
-273.49730914229
 11
679.9374532059406
 21
-270.4434996184789
 72
     1
 10
679.9374532059406
 20
-270.4434996184789
 11
681.1302459081072
 21
-270.4434996184789
 72
     1
 10
681.1302459081072
 20
-270.4434996184789
 11
681.1302459081072
 21
-271.5123329518135
 72
     1
 10
681.1302459081072
 20
-271.5123329518135
 11
682.1799034860146
 21
-271.5123329518135
 72
     1
 10
682.1799034860146
 20
-271.5123329518135
 11
682.1799034860146
 21
-270.4434996184789
 72
     1
 10
682.1799034860146
 20
-270.4434996184789
 11
683.3726961881811
 21
-270.4434996184789
 72
     1
 10
683.3726961881811
 20
-270.4434996184789
 11
683.3726961881811
 21
-273.49730914229
 97
       12
330
272
330
273
330
25D
330
25C
330
25B
330
26F
330
25A
330
270
330
271
330
259
330
258
330
257
 75
     1
 76
     2
 52
45.0
 41
0.1
 77
     0
 78
     1
 53
45.0
 43
62.7811309658083
 44
-72.3161373035813
 45
-0.1414213562373095
 46
0.0
 79
     0
 98
        1
 10
0.0
 20
0.0
  0
HATCH
  5
34A
330
81
100
AcDbEntity
  8
1
  6
Continuous
 62
     2
100
AcDbHatch
 10
0.0
 20
0.0
 30
0.0
210
0.0
220
0.0
230
1.0
  2
CUSTOM1
 70
     0
 71
     1
 91
        1
 92
        1
 93
       12
 72
     1
 10
683.3726961881811
 20
-273.49730914229
 11
682.1799034860146
 21
-273.49730914229
 72
     1
 10
682.1799034860146
 20
-273.49730914229
 11
682.1799034860146
 21
-272.3630370334463
 72
     1
 10
682.1799034860146
 20
-272.3630370334463
 11
681.1302459081072
 21
-272.3630370334463
 72
     1
 10
681.1302459081072
 20
-272.3630370334463
 11
681.1302459081072
 21
-273.49730914229
 72
     1
 10
681.1302459081072
 20
-273.49730914229
 11
679.9374532059406
 21
-273.49730914229
 72
     1
 10
679.9374532059406
 20
-273.49730914229
 11
679.9374532059406
 21
-270.4434996184789
 72
     1
 10
679.9374532059406
 20
-270.4434996184789
 11
681.1302459081072
 21
-270.4434996184789
 72
     1
 10
681.1302459081072
 20
-270.4434996184789
 11
681.1302459081072
 21
-271.5123329518135
 72
     1
 10
681.1302459081072
 20
-271.5123329518135
 11
682.1799034860146
 21
-271.5123329518135
 72
     1
 10
682.1799034860146
 20
-271.5123329518135
 11
682.1799034860146
 21
-270.4434996184789
 72
     1
 10
682.1799034860146
 20
-270.4434996184789
 11
683.3726961881811
 21
-270.4434996184789
 72
     1
 10
683.3726961881811
 20
-270.4434996184789
 11
683.3726961881811
 21
-273.49730914229
 97
       12
330
272
330
273
330
25D
330
25C
330
25B
330
26F
330
25A
330
270
330
271
330
259
330
258
330
257
 75
     1
 76
     2
 52
45.0
 41
0.1
 77
     0
 78
     1
 53
45.0
 43
62.7811309658083
 44
-72.3161373035813
 45
-0.1414213562373095
 46
0.0
 79
     0
 98
        1
 10
0.0
 20
0.0
  0
HATCH
  5
34B
330
81
100
AcDbEntity
  8
1
  6
Continuous
 62
     2
100
AcDbHatch
 10
0.0
 20
0.0
 30
0.0
210
0.0
220
0.0
230
1.0
  2
CUSTOM2
 70
     0
 71
     1
 91
        1
 92
        1
 93
       10
 72
     1
 10
685.6149955373694
 20
-275.1114656048584
 11
684.3744911271165
 21
-273.8026900946531
 72
     1
 10
684.3744911271165
 20
-273.8026900946531
 11
683.1816984249489
 21
-273.8026900946531
 72
     1
 10
683.1816984249489
 20
-273.8026900946531
 11
683.1816984249489
 21
-276.8564996184643
 72
     1
 10
683.1816984249489
 20
-276.8564996184643
 11
684.3744911271165
 21
-276.8564996184643
 72
     1
 10
684.3744911271165
 20
-276.8564996184643
 11
684.3744911271165
 21
-275.5477241082598
 72
     1
 10
684.3744911271165
 20
-275.5477241082598
 11
685.6149955373694
 21
-276.8564996184643
 72
     1
 10
685.6149955373694
 20
-276.8564996184643
 11
686.8077882395357
 21
-276.8564996184643
 72
     1
 10
686.8077882395357
 20
-276.8564996184643
 11
686.8077882395357
 21
-273.8026900946531
 72
     1
 10
686.8077882395357
 20
-273.8026900946531
 11
685.6149955373694
 21
-273.8026900946531
 72
     1
 10
685.6149955373694
 20
-273.8026900946531
 11
685.6149955373694
 21
-275.1114656048584
 97
       10
330
280
330
250
330
24F
330
252
330
27B
330
27C
330
251
330
27D
330
27E
330
27F
 75
     1
 76
     2
 52
45.0
 41
0.1
 77
     0
 78
     1
 53
45.0
 43
62.7811309658083
 44
-72.3161373035813
 45
-0.1414213562373095
 46
0.0
 79
     0
 98
        1
 10
0.0
 20
0.0
  0
HATCH
  5
34C
330
81
100
AcDbEntity
  8
1
  6
Continuous
 62
     2
100
AcDbHatch
 10
0.0
 20
0.0
 30
0.0
210
0.0
220
0.0
230
1.0
  2
CUSTOM3
 70
     0
 71
     1
 91
        1
 92
        1
 93
       10
 72
     1
 10
685.6149955373694
 20
-275.1114656048584
 11
684.3744911271165
 21
-273.8026900946531
 72
     1
 10
684.3744911271165
 20
-273.8026900946531
 11
683.1816984249489
 21
-273.8026900946531
 72
     1
 10
683.1816984249489
 20
-273.8026900946531
 11
683.1816984249489
 21
-276.8564996184643
 72
     1
 10
683.1816984249489
 20
-276.8564996184643
 11
684.3744911271165
 21
-276.8564996184643
 72
     1
 10
684.3744911271165
 20
-276.8564996184643
 11
684.3744911271165
 21
-275.5477241082598
 72
     1
 10
684.3744911271165
 20
-275.5477241082598
 11
685.6149955373694
 21
-276.8564996184643
 72
     1
 10
685.6149955373694
 20
-276.8564996184643
 11
686.8077882395357
 21
-276.8564996184643
 72
     1
 10
686.8077882395357
 20
-276.8564996184643
 11
686.8077882395357
 21
-273.8026900946531
 72
     1
 10
686.8077882395357
 20
-273.8026900946531
 11
685.6149955373694
 21
-273.8026900946531
 72
     1
 10
685.6149955373694
 20
-273.8026900946531
 11
685.6149955373694
 21
-275.1114656048584
 97
       10
330
280
330
250
330
24F
330
252
330
27B
330
27C
330
251
330
27D
330
27E
330
27F
 75
     1
 76
     2
 52
45.0
 41
0.1
 77
     0
 78
     1
 53
45.0
 43
62.7811309658083
 44
-72.3161373035813
 45
-0.1414213562373095
 46
0.0
 79
     0
 98
        1
 10
0.0
 20
0.0
  0
HATCH
  5
34D
330
81
100
AcDbEntity
  8
1
  6
Continuous
 62
     2
100
AcDbHatch
 10
0.0
 20
0.0
 30
0.0
210
0.0
220
0.0
230
1.0
  2
CUSTOM4
 70
     0
 71
     1
 91
        1
 92
        1
 93
       10
 72
     1
 10
690.8634343577891
 20
-271.752275128684
 11
689.622929947535
 21
-270.4434996184789
 72
     1
 10
689.622929947535
 20
-270.4434996184789
 11
688.4301372453685
 21
-270.4434996184789
 72
     1
 10
688.4301372453685
 20
-270.4434996184789
 11
688.4301372453685
 21
-273.49730914229
 72
     1
 10
688.4301372453685
 20
-273.49730914229
 11
689.622929947535
 21
-273.49730914229
 72
     1
 10
689.622929947535
 20
-273.49730914229
 11
689.622929947535
 21
-272.1885336320852
 72
     1
 10
689.622929947535
 20
-272.1885336320852
 11
690.8634343577891
 21
-273.49730914229
 72
     1
 10
690.8634343577891
 20
-273.49730914229
 11
692.0562270599557
 21
-273.49730914229
 72
     1
 10
692.0562270599557
 20
-273.49730914229
 11
692.0562270599557
 21
-270.4434996184789
 72
     1
 10
692.0562270599557
 20
-270.4434996184789
 11
690.8634343577891
 21
-270.4434996184789
 72
     1
 10
690.8634343577891
 20
-270.4434996184789
 11
690.8634343577891
 21
-271.752275128684
 97
       10
330
285
330
24D
330
24C
330
286
330
24B
330
281
330
282
330
283
330
284
330
24E
 75
     1
 76
     2
 52
45.0
 41
0.1
 77
     0
 78
     1
 53
45.0
 43
62.7811309658083
 44
-72.3161373035813
 45
-0.1414213562373095
 46
0.0
 79
     0
 98
        1
 10
0.0
 20
0.0
  0
HATCH
  5
34E
330
81
100
AcDbEntity
  8
1
  6
Continuous
 62
     2
100
AcDbHatch
 10
0.0
 20
0.0
 30
0.0
210
0.0
220
0.0
230
1.0
  2
CUSTOM5
 70
     0
 71
     1
 91
        1
 92
        1
 93
       10
 72
     1
 10
690.8634343577891
 20
-271.752275128684
 11
689.622929947535
 21
-270.4434996184789
 72
     1
 10
689.622929947535
 20
-270.4434996184789
 11
688.4301372453685
 21
-270.4434996184789
 72
     1
 10
688.4301372453685
 20
-270.4434996184789
 11
688.4301372453685
 21
-273.49730914229
 72
     1
 10
688.4301372453685
 20
-273.49730914229
 11
689.622929947535
 21
-273.49730914229
 72
     1
 10
689.622929947535
 20
-273.49730914229
 11
689.622929947535
 21
-272.1885336320852
 72
     1
 10
689.622929947535
 20
-272.1885336320852
 11
690.8634343577891
 21
-273.49730914229
 72
     1
 10
690.8634343577891
 20
-273.49730914229
 11
692.0562270599557
 21
-273.49730914229
 72
     1
 10
692.0562270599557
 20
-273.49730914229
 11
692.0562270599557
 21
-270.4434996184789
 72
     1
 10
692.0562270599557
 20
-270.4434996184789
 11
690.8634343577891
 21
-270.4434996184789
 72
     1
 10
690.8634343577891
 20
-270.4434996184789
 11
690.8634343577891
 21
-271.752275128684
 97
       10
330
285
330
24D
330
24C
330
286
330
24B
330
281
330
282
330
283
330
284
330
24E
 75
     1
 76
     2
 52
45.0
 41
0.1
 77
     0
 78
     1
 53
45.0
 43
62.7811309658083
 44
-72.3161373035813
 45
-0.1414213562373095
 46
0.0
 79
     0
 98
        1
 10
0.0
 20
0.0
  0
HATCH
  5
34F
330
81
100
AcDbEntity
  8
1
  6
Continuous
 62
     2
100
AcDbHatch
 10
0.0
 20
0.0
 30
0.0
210
0.0
220
0.0
230
1.0
  2
CUSTOM6
 70
     0
 71
     1
 91
        1
 92
        1
 93
        8
 72
     1
 10
689.7659141409097
 20
-273.8026900946531
 11
686.9509233637959
 21
-273.8026900946531
 72
     1
 10
686.9509233637959
 20
-273.8026900946531
 11
686.9509233637959
 21
-274.5879554007769
 72
     1
 10
686.9509233637959
 20
-274.5879554007769
 11
687.7620224012705
 21
-274.5879554007769
 72
     1
 10
687.7620224012705
 20
-274.5879554007769
 11
687.7620224012705
 21
-276.8564996184643
 72
     1
 10
687.7620224012705
 20
-276.8564996184643
 11
688.954815103437
 21
-276.8564996184643
 72
     1
 10
688.954815103437
 20
-276.8564996184643
 11
688.954815103437
 21
-274.5879554007769
 72
     1
 10
688.954815103437
 20
-274.5879554007769
 11
689.7659141409097
 21
-274.5879554007769
 72
     1
 10
689.7659141409097
 20
-274.5879554007769
 11
689.7659141409097
 21
-273.8026900946531
 97
        8
330
247
330
287
330
246
330
288
330
289
330
24A
330
249
330
248
 75
     1
 76
     2
 52
45.0
 41
0.1
 77
     0
 78
     1
 53
45.0
 43
62.7811309658083
 44
-72.3161373035813
 45
-0.1414213562373095
 46
0.0
 79
     0
 98
        1
 10
0.0
 20
0.0
  0
HATCH
  5
350
330
81
100
AcDbEntity
  8
1
  6
Continuous
 62
     2
100
AcDbHatch
 10
0.0
 20
0.0
 30
0.0
210
0.0
220
0.0
230
1.0
  2
CUSTOM7
 70
     0
 71
     1
 91
        1
 92
        1
 93
        8
 72
     1
 10
689.7659141409097
 20
-273.8026900946531
 11
686.9509233637959
 21
-273.8026900946531
 72
     1
 10
686.9509233637959
 20
-273.8026900946531
 11
686.9509233637959
 21
-274.5879554007769
 72
     1
 10
686.9509233637959
 20
-274.5879554007769
 11
687.7620224012705
 21
-274.5879554007769
 72
     1
 10
687.7620224012705
 20
-274.5879554007769
 11
687.7620224012705
 21
-276.8564996184643
 72
     1
 10
687.7620224012705
 20
-276.8564996184643
 11
688.954815103437
 21
-276.8564996184643
 72
     1
 10
688.954815103437
 20
-276.8564996184643
 11
688.954815103437
 21
-274.5879554007769
 72
     1
 10
688.954815103437
 20
-274.5879554007769
 11
689.7659141409097
 21
-274.5879554007769
 72
     1
 10
689.7659141409097
 20
-274.5879554007769
 11
689.7659141409097
 21
-273.8026900946531
 97
        8
330
247
330
287
330
246
330
288
330
289
330
24A
330
249
330
248
 75
     1
 76
     2
 52
45.0
 41
0.1
 77
     0
 78
     1
 53
45.0
 43
62.7811309658083
 44
-72.3161373035813
 45
-0.1414213562373095
 46
0.0
 79
     0
 98
        1
 10
0.0
 20
0.0
  0
HATCH
  5
351
330
81
100
AcDbEntity
  8
1
  6
Continuous
 62
     2
100
AcDbHatch
 10
0.0
 20
0.0
 30
0.0
210
0.0
220
0.0
230
1.0
  2
CUSTOM8
 70
     0
 71
     1
 91
        2
 92
        1
 93
        8
 72
     1
 10
691.9043415968566
 20
-276.8564996184643
 11
691.6928615433808
 21
-276.3155390742465
 72
     1
 10
691.6928615433808
 20
-276.3155390742465
 11
690.5604199667068
 21
-276.3155390742465
 72
     1
 10
690.5604199667068
 20
-276.3155390742465
 11
690.3489399132311
 21
-276.8564996184643
 72
     1
 10
690.3489399132311
 20
-276.8564996184643
 11
689.1084355029782
 21
-276.8564996184643
 72
     1
 10
689.1084355029782
 20
-276.8564996184643
 11
690.5063885499173
 21
-273.8026900946531
 72
     1
 10
690.5063885499173
 20
-273.8026900946531
 11
691.7468929601703
 21
-273.8026900946531
 72
     1
 10
691.7468929601703
 20
-273.8026900946531
 11
693.1448460071105
 21
-276.8564996184643
 72
     1
 10
693.1448460071105
 20
-276.8564996184643
 11
691.9043415968566
 21
-276.8564996184643
 97
        8
330
28B
330
28C
330
243
330
28D
330
242
330
245
330
28A
330
244
 92
       16
 93
        3
 72
     1
 10
690.826475517852
 20
-275.6349758089399
 11
691.1266407550443
 21
-274.8671608429532
 72
     1
 10
691.1266407550443
 20
-274.8671608429532
 11
691.4268059922344
 21
-275.6349758089399
 72
     1
 10
691.4268059922344
 20
-275.6349758089399
 11
690.826475517852
 21
-275.6349758089399
 97
        3
330
241
330
28F
330
28E
 75
     1
 76
     2
 52
45.0
 41
0.1
 77
     0
 78
     1
 53
45.0
 43
62.7811309658083
 44
-72.3161373035813
 45
-0.1414213562373095
 46
0.0
 79
     0
 98
        1
 10
0.0
 20
0.0
  0
HATCH
  5
352
330
81
100
AcDbEntity
  8
1
  6
Continuous
 62
     2
100
AcDbHatch
 10
0.0
 20
0.0
 30
0.0
210
0.0
220
0.0
230
1.0
  2
CUSTOM9
 70
     0
 71
     1
 91
        2
 92
        1
 93
        8
 72
     1
 10
691.9043415968566
 20
-276.8564996184643
 11
691.6928615433808
 21
-276.3155390742465
 72
     1
 10
691.6928615433808
 20
-276.3155390742465
 11
690.5604199667068
 21
-276.3155390742465
 72
     1
 10
690.5604199667068
 20
-276.3155390742465
 11
690.3489399132311
 21
-276.8564996184643
 72
     1
 10
690.3489399132311
 20
-276.8564996184643
 11
689.1084355029782
 21
-276.8564996184643
 72
     1
 10
689.1084355029782
 20
-276.8564996184643
 11
690.5063885499173
 21
-273.8026900946531
 72
     1
 10
690.5063885499173
 20
-273.8026900946531
 11
691.7468929601703
 21
-273.8026900946531
 72
     1
 10
691.7468929601703
 20
-273.8026900946531
 11
693.1448460071105
 21
-276.8564996184643
 72
     1
 10
693.1448460071105
 20
-276.8564996184643
 11
691.9043415968566
 21
-276.8564996184643
 97
        8
330
28B
330
28C
330
243
330
28D
330
242
330
245
330
28A
330
244
 92
       16
 93
        3
 72
     1
 10
690.826475517852
 20
-275.6349758089399
 11
691.1266407550443
 21
-274.8671608429532
 72
     1
 10
691.1266407550443
 20
-274.8671608429532
 11
691.4268059922344
 21
-275.6349758089399
 72
     1
 10
691.4268059922344
 20
-275.6349758089399
 11
690.826475517852
 21
-275.6349758089399
 97
        3
330
241
330
28F
330
28E
 75
     1
 76
     2
 52
45.0
 41
0.1
 77
     0
 78
     1
 53
45.0
 43
62.7811309658083
 44
-72.3161373035813
 45
-0.1414213562373095
 46
0.0
 79
     0
 98
        1
 10
0.0
 20
0.0
  0
HATCH
  5
353
330
81
100
AcDbEntity
  8
1
  6
Continuous
 62
     2
100
AcDbHatch
 10
0.0
 20
0.0
 30
0.0
210
0.0
220
0.0
230
1.0
  2
CUSTOM10
 70
     0
 71
     1
 91
        1
 92
        1
 93
        4
 72
     1
 10
693.5352900106425
 20
-273.49730914229
 11
692.2947856003896
 21
-273.49730914229
 72
     1
 10
692.2947856003896
 20
-273.49730914229
 11
692.2947856003896
 21
-270.4434996184789
 72
     1
 10
692.2947856003896
 20
-270.4434996184789
 11
693.5352900106425
 21
-270.4434996184789
 72
     1
 10
693.5352900106425
 20
-270.4434996184789
 11
693.5352900106425
 21
-273.49730914229
 97
        4
330
23E
330
240
330
290
330
23F
 75
     1
 76
     2
 52
45.0
 41
0.1
 77
     0
 78
     1
 53
45.0
 43
62.7811309658083
 44
-72.3161373035813
 45
-0.1414213562373095
 46
0.0
 79
     0
 98
        1
 10
0.0
 20
0.0
  0
HATCH
  5
354
330
81
100
AcDbEntity
  8
1
  6
Continuous
 62
     2
100
AcDbHatch
 10
0.0
 20
0.0
 30
0.0
210
0.0
220
0.0
230
1.0
  2
CUSTOM11
 70
     0
 71
     1
 91
        1
 92
        1
 93
        4
 72
     1
 10
693.5352900106425
 20
-273.49730914229
 11
692.2947856003896
 21
-273.49730914229
 72
     1
 10
692.2947856003896
 20
-273.49730914229
 11
692.2947856003896
 21
-270.4434996184789
 72
     1
 10
692.2947856003896
 20
-270.4434996184789
 11
693.5352900106425
 21
-270.4434996184789
 72
     1
 10
693.5352900106425
 20
-270.4434996184789
 11
693.5352900106425
 21
-273.49730914229
 97
        4
330
23E
330
240
330
290
330
23F
 75
     1
 76
     2
 52
45.0
 41
0.1
 77
     0
 78
     1
 53
45.0
 43
62.7811309658083
 44
-72.3161373035813
 45
-0.1414213562373095
 46
0.0
 79
     0
 98
        1
 10
0.0
 20
0.0
  0
HATCH
  5
355
330
81
100
AcDbEntity
  8
1
  6
Continuous
 62
     2
100
AcDbHatch
 10
0.0
 20
0.0
 30
0.0
210
0.0
220
0.0
230
1.0
  2
CUSTOM12
 70
     0
 71
     1
 91
        1
 92
        1
 93
       12
 72
     1
 10
697.7577761763133
 20
-270.4434996184789
 11
696.4552465455467
 21
-271.9164501485151
 72
     1
 10
696.4552465455467
 20
-271.9164501485151
 11
697.853199592487
 21
-273.49730914229
 72
     1
 10
697.853199592487
 20
-273.49730914229
 11
696.4504753747387
 21
-273.49730914229
 72
     1
 10
696.4504753747387
 20
-273.49730914229
 11
695.7538844366733
 21
-272.7095773569963
 72
     1
 10
695.7538844366733
 20
-272.7095773569963
 11
695.0572934986075
 21
-273.49730914229
 72
     1
 10
695.0572934986075
 20
-273.49730914229
 11
693.6545692808594
 21
-273.49730914229
 72
     1
 10
693.6545692808594
 20
-273.49730914229
 11
695.0525223277997
 21
-271.9164501485151
 72
     1
 10
695.0525223277997
 20
-271.9164501485151
 11
693.7499926970322
 21
-270.4434996184789
 72
     1
 10
693.7499926970322
 20
-270.4434996184789
 11
695.1527169147814
 21
-270.4434996184789
 72
     1
 10
695.1527169147814
 20
-270.4434996184789
 11
695.7538844366733
 21
-271.1233229400344
 72
     1
 10
695.7538844366733
 20
-271.1233229400344
 11
696.355051958566
 21
-270.4434996184789
 72
     1
 10
696.355051958566
 20
-270.4434996184789
 11
697.7577761763133
 21
-270.4434996184789
 97
       12
330
239
330
238
330
237
330
294
330
295
330
291
330
292
330
23D
330
23C
330
23B
330
23A
330
293
 75
     1
 76
     2
 52
45.0
 41
0.1
 77
     0
 78
     1
 53
45.0
 43
62.7811309658083
 44
-72.3161373035813
 45
-0.1414213562373095
 46
0.0
 79
     0
 98
        1
 10
0.0
 20
0.0
  0
HATCH
  5
356
330
81
100
AcDbEntity
  8
1
  6
Continuous
 62
     2
100
AcDbHatch
 10
0.0
 20
0.0
 30
0.0
210
0.0
220
0.0
230
1.0
  2
CUSTOM13
 70
     0
 71
     1
 91
        1
 92
        1
 93
       12
 72
     1
 10
697.7577761763133
 20
-270.4434996184789
 11
696.4552465455467
 21
-271.9164501485151
 72
     1
 10
696.4552465455467
 20
-271.9164501485151
 11
697.853199592487
 21
-273.49730914229
 72
     1
 10
697.853199592487
 20
-273.49730914229
 11
696.4504753747387
 21
-273.49730914229
 72
     1
 10
696.4504753747387
 20
-273.49730914229
 11
695.7538844366733
 21
-272.7095773569963
 72
     1
 10
695.7538844366733
 20
-272.7095773569963
 11
695.0572934986075
 21
-273.49730914229
 72
     1
 10
695.0572934986075
 20
-273.49730914229
 11
693.6545692808594
 21
-273.49730914229
 72
     1
 10
693.6545692808594
 20
-273.49730914229
 11
695.0525223277997
 21
-271.9164501485151
 72
     1
 10
695.0525223277997
 20
-271.9164501485151
 11
693.7499926970322
 21
-270.4434996184789
 72
     1
 10
693.7499926970322
 20
-270.4434996184789
 11
695.1527169147814
 21
-270.4434996184789
 72
     1
 10
695.1527169147814
 20
-270.4434996184789
 11
695.7538844366733
 21
-271.1233229400344
 72
     1
 10
695.7538844366733
 20
-271.1233229400344
 11
696.355051958566
 21
-270.4434996184789
 72
     1
 10
696.355051958566
 20
-270.4434996184789
 11
697.7577761763133
 21
-270.4434996184789
 97
       12
330
239
330
238
330
237
330
294
330
295
330
291
330
292
330
23D
330
23C
330
23B
330
23A
330
293
 75
     1
 76
     2
 52
45.0
 41
0.1
 77
     0
 78
     1
 53
45.0
 43
62.7811309658083
 44
-72.3161373035813
 45
-0.1414213562373095
 46
0.0
 79
     0
 98
        1
 10
0.0
 20
0.0
  0
HATCH
  5
357
330
81
100
AcDbEntity
  8
1
  6
Continuous
 62
     2
100
AcDbHatch
 10
0.0
 20
0.0
 30
0.0
210
0.0
220
0.0
230
1.0
  2
CUSTOM14
 70
     0
 71
     1
 91
        2
 92
        1
 93
        6
 72
     1
 10
678.7400407621673
 20
-272.5542309011462
 11
677.9812731743868
 21
-272.5542309011462
 72
     1
 10
677.9812731743868
 20
-272.5542309011462
 11
677.9812731743868
 21
-273.49730914229
 72
     1
 10
677.9812731743868
 20
-273.49730914229
 11
676.7407687641329
 21
-273.49730914229
 72
     1
 10
676.7407687641329
 20
-273.49730914229
 11
676.7407687641329
 21
-270.4434996184789
 72
     1
 10
676.7407687641329
 20
-270.4434996184789
 11
678.7400407621673
 21
-270.4434996184789
 72
     2
 10
678.7400407621673
 20
-271.4988652598126
 40
1.055365641333594
 50
270.0
 51
450.0
 73
     0
 97
        6
330
261
330
260
330
26D
330
26C
330
262
330
2F3
 92
       16
 93
        4
 72
     2
 10
678.2985682359289
 20
-271.4594692885901
 40
0.3528638246710898
 50
270.0
 51
450.0
 73
     1
 72
     1
 10
678.2985682359289
 20
-271.1066054639189
 11
677.9812731743868
 21
-271.1066054639189
 72
     1
 10
677.9812731743868
 20
-271.1066054639189
 11
677.9812731743868
 21
-271.8123331132612
 72
     1
 10
677.9812731743868
 20
-271.8123331132612
 11
678.2985682359289
 21
-271.8123331132612
 97
        4
330
307
330
25E
330
26E
330
25F
 75
     1
 76
     2
 52
45.0
 41
0.1
 77
     0
 78
     1
 53
45.0
 43
62.7811309658083
 44
-72.3161373035813
 45
-0.1414213562373095
 46
0.0
 79
     0
 98
        1
 10
0.0
 20
0.0
  0
HATCH
  5
358
330
81
100
AcDbEntity
  8
1
  6
Continuous
 62
     2
100
AcDbHatch
 10
0.0
 20
0.0
 30
0.0
210
0.0
220
0.0
230
1.0
  2
CUSTOM15
 70
     0
 71
     1
 91
        2
 92
        1
 93
        6
 72
     1
 10
678.7400407621673
 20
-272.5542309011462
 11
677.9812731743868
 21
-272.5542309011462
 72
     1
 10
677.9812731743868
 20
-272.5542309011462
 11
677.9812731743868
 21
-273.49730914229
 72
     1
 10
677.9812731743868
 20
-273.49730914229
 11
676.7407687641329
 21
-273.49730914229
 72
     1
 10
676.7407687641329
 20
-273.49730914229
 11
676.7407687641329
 21
-270.4434996184789
 72
     1
 10
676.7407687641329
 20
-270.4434996184789
 11
678.7400407621673
 21
-270.4434996184789
 72
     2
 10
678.7400407621673
 20
-271.4988652598126
 40
1.055365641333594
 50
270.0
 51
450.0
 73
     0
 97
        6
330
261
330
260
330
26D
330
26C
330
262
330
2F3
 92
       16
 93
        4
 72
     2
 10
678.2985682359289
 20
-271.4594692885901
 40
0.3528638246710898
 50
270.0
 51
450.0
 73
     1
 72
     1
 10
678.2985682359289
 20
-271.1066054639189
 11
677.9812731743868
 21
-271.1066054639189
 72
     1
 10
677.9812731743868
 20
-271.1066054639189
 11
677.9812731743868
 21
-271.8123331132612
 72
     1
 10
677.9812731743868
 20
-271.8123331132612
 11
678.2985682359289
 21
-271.8123331132612
 97
        4
330
307
330
25E
330
26E
330
25F
 75
     1
 76
     2
 52
45.0
 41
0.1
 77
     0
 78
     1
 53
45.0
 43
62.7811309658083
 44
-72.3161373035813
 45
-0.1414213562373095
 46
0.0
 79
     0
 98
        1
 10
0.0
 20
0.0
  0
HATCH
  5
359
330
81
100
AcDbEntity
  8
1
  6
Continuous
 62
     2
100
AcDbHatch
 10
0.0
 20
0.0
 30
0.0
210
0.0
220
0.0
230
1.0
  2
CUSTOM16
 70
     0
 71
     1
 91
        2
 92
        1
 93
        4
 72
     2
 10
681.2965835105264
 20
-275.8681698668619
 40
2.065479772208744
 50
62.45185182430892
 51
117.5481481756659
 73
     1
 72
     2
 10
681.015643618693
 20
-275.3295948565591
 40
1.458034083651693
 50
117.5481481756608
 51
242.4518518243361
 73
     1
 72
     2
 10
681.2965835105264
 20
-274.7910198462557
 40
2.065479772208624
 50
242.4518518243392
 51
297.548148175686
 73
     1
 72
     2
 10
681.5775234023596
 20
-275.3295948565591
 40
1.458034083652067
 50
297.5481481757035
 51
422.4518518242996
 73
     1
 97
        4
330
2FF
330
2FE
330
300
330
2FD
 92
       16
 93
        4
 72
     2
 10
681.09684347418
 20
-275.3295948565591
 40
0.7717997786795255
 50
321.8795802028372
 51
398.1204197971661
 73
     1
 72
     2
 10
681.2965835105264
 20
-275.1728636784386
 40
0.5179085730132582
 50
38.12041979716663
 51
141.8795802028567
 73
     1
 72
     2
 10
681.4963235468724
 20
-275.3295948565591
 40
0.7717997786795606
 50
141.8795802028339
 51
218.1204197971628
 73
     1
 72
     2
 10
681.2965835105264
 20
-275.4863260346789
 40
0.5179085730139126
 50
218.1204197971978
 51
321.8795802027789
 73
     1
 97
        4
330
31B
330
318
330
319
330
31A
 75
     1
 76
     2
 52
45.0
 41
0.1
 77
     0
 78
     1
 53
45.0
 43
62.7811309658083
 44
-72.3161373035813
 45
-0.1414213562373095
 46
0.0
 79
     0
 98
        1
 10
0.0
 20
0.0
  0
HATCH
  5
35A
330
81
100
AcDbEntity
  8
1
  6
Continuous
 62
     2
100
AcDbHatch
 10
0.0
 20
0.0
 30
0.0
210
0.0
220
0.0
230
1.0
  2
CUSTOM17
 70
     0
 71
     1
 91
        2
 92
        1
 93
        4
 72
     2
 10
681.2965835105264
 20
-275.8681698668619
 40
2.065479772208744
 50
62.45185182430892
 51
117.5481481756659
 73
     1
 72
     2
 10
681.015643618693
 20
-275.3295948565591
 40
1.458034083651693
 50
117.5481481756608
 51
242.4518518243361
 73
     1
 72
     2
 10
681.2965835105264
 20
-274.7910198462557
 40
2.065479772208624
 50
242.4518518243392
 51
297.548148175686
 73
     1
 72
     2
 10
681.5775234023596
 20
-275.3295948565591
 40
1.458034083652067
 50
297.5481481757035
 51
422.4518518242996
 73
     1
 97
        4
330
2FF
330
2FE
330
300
330
2FD
 92
       16
 93
        4
 72
     2
 10
681.09684347418
 20
-275.3295948565591
 40
0.7717997786795255
 50
321.8795802028372
 51
398.1204197971661
 73
     1
 72
     2
 10
681.2965835105264
 20
-275.1728636784386
 40
0.5179085730132582
 50
38.12041979716663
 51
141.8795802028567
 73
     1
 72
     2
 10
681.4963235468724
 20
-275.3295948565591
 40
0.7717997786795606
 50
141.8795802028339
 51
218.1204197971628
 73
     1
 72
     2
 10
681.2965835105264
 20
-275.4863260346789
 40
0.5179085730139126
 50
218.1204197971978
 51
321.8795802027789
 73
     1
 97
        4
330
31B
330
318
330
319
330
31A
 75
     1
 76
     2
 52
45.0
 41
0.1
 77
     0
 78
     1
 53
45.0
 43
62.7811309658083
 44
-72.3161373035813
 45
-0.1414213562373095
 46
0.0
 79
     0
 98
        1
 10
0.0
 20
0.0
  0
HATCH
  5
35B
330
81
100
AcDbEntity
  8
1
  6
Continuous
 62
     2
100
AcDbHatch
 10
0.0
 20
0.0
 30
0.0
210
0.0
220
0.0
230
1.0
  2
CUSTOM18
 70
     0
 71
     1
 91
        2
 92
        1
 93
       12
 72
     1
 10
688.1915787049356
 20
-271.1415132239218
 11
686.855650878508
 21
-271.1415132239218
 72
     1
 10
686.855650878508
 20
-271.1415132239218
 11
686.855650878508
 21
-271.6213975776635
 72
     1
 10
686.855650878508
 20
-271.6213975776635
 11
688.1915787049356
 21
-271.6213975776635
 72
     1
 10
688.1915787049356
 20
-271.6213975776635
 11
688.1915787049356
 21
-272.3194111831058
 72
     1
 10
688.1915787049356
 20
-272.3194111831058
 11
686.855650878508
 21
-272.3194111831058
 72
     1
 10
686.855650878508
 20
-272.3194111831058
 11
686.855650878508
 21
-272.7992955368476
 72
     1
 10
686.855650878508
 20
-272.7992955368476
 11
688.1915787049356
 21
-272.7992955368476
 72
     1
 10
688.1915787049356
 20
-272.7992955368476
 11
688.1915787049356
 21
-273.49730914229
 72
     1
 10
688.1915787049356
 20
-273.49730914229
 11
685.0412589811547
 21
-273.49730914229
 72
     2
 10
685.0412589811547
 20
-271.9704043803847
 40
1.526904761905826
 50
90.0
 51
270.0
 73
     0
 72
     1
 10
685.0412589811547
 20
-270.4434996184789
 11
688.1915787049356
 21
-270.4434996184789
 72
     1
 10
688.1915787049356
 20
-270.4434996184789
 11
688.1915787049356
 21
-271.1415132239218
 97
       12
330
275
330
308
330
276
330
277
330
278
330
279
330
256
330
255
330
254
330
253
330
27A
330
274
 92
       16
 93
        4
 72
     2
 10
685.2575309913199
 20
-271.8136732022642
 40
0.517908573013402
 50
38.12041979714616
 51
141.8795802028616
 73
     1
 72
     2
 10
685.4572710276661
 20
-271.9704043803847
 40
0.7717997786797044
 50
141.8795802028477
 51
218.120419797149
 73
     1
 72
     2
 10
685.2575309913199
 20
-272.1271355585052
 40
0.5179085730134564
 50
218.1204197971334
 51
321.8795802028588
 73
     1
 72
     2
 10
685.0577909549737
 20
-271.9704043803847
 40
0.7717997786794905
 50
321.8795802028405
 51
398.1204197971627
 73
     1
 97
        4
330
302
330
301
330
2FC
330
2FB
 75
     1
 76
     2
 52
45.0
 41
0.1
 77
     0
 78
     1
 53
45.0
 43
62.7811309658083
 44
-72.3161373035813
 45
-0.1414213562373095
 46
0.0
 79
     0
 98
        1
 10
0.0
 20
0.0
  0
HATCH
  5
35C
330
81
100
AcDbEntity
  8
1
  6
Continuous
 62
     2
100
AcDbHatch
 10
0.0
 20
0.0
 30
0.0
210
0.0
220
0.0
230
1.0
  2
CUSTOM19
 70
     0
 71
     1
 91
        2
 92
        1
 93
       12
 72
     1
 10
688.1915787049356
 20
-271.1415132239218
 11
686.855650878508
 21
-271.1415132239218
 72
     1
 10
686.855650878508
 20
-271.1415132239218
 11
686.855650878508
 21
-271.6213975776635
 72
     1
 10
686.855650878508
 20
-271.6213975776635
 11
688.1915787049356
 21
-271.6213975776635
 72
     1
 10
688.1915787049356
 20
-271.6213975776635
 11
688.1915787049356
 21
-272.3194111831058
 72
     1
 10
688.1915787049356
 20
-272.3194111831058
 11
686.855650878508
 21
-272.3194111831058
 72
     1
 10
686.855650878508
 20
-272.3194111831058
 11
686.855650878508
 21
-272.7992955368476
 72
     1
 10
686.855650878508
 20
-272.7992955368476
 11
688.1915787049356
 21
-272.7992955368476
 72
     1
 10
688.1915787049356
 20
-272.7992955368476
 11
688.1915787049356
 21
-273.49730914229
 72
     1
 10
688.1915787049356
 20
-273.49730914229
 11
685.0412589811547
 21
-273.49730914229
 72
     2
 10
685.0412589811547
 20
-271.9704043803847
 40
1.526904761905826
 50
90.0
 51
270.0
 73
     0
 72
     1
 10
685.0412589811547
 20
-270.4434996184789
 11
688.1915787049356
 21
-270.4434996184789
 72
     1
 10
688.1915787049356
 20
-270.4434996184789
 11
688.1915787049356
 21
-271.1415132239218
 97
       12
330
275
330
308
330
276
330
277
330
278
330
279
330
256
330
255
330
254
330
253
330
27A
330
274
 92
       16
 93
        4
 72
     2
 10
685.2575309913199
 20
-271.8136732022642
 40
0.517908573013402
 50
38.12041979714616
 51
141.8795802028616
 73
     1
 72
     2
 10
685.4572710276661
 20
-271.9704043803847
 40
0.7717997786797044
 50
141.8795802028477
 51
218.120419797149
 73
     1
 72
     2
 10
685.2575309913199
 20
-272.1271355585052
 40
0.5179085730134564
 50
218.1204197971334
 51
321.8795802028588
 73
     1
 72
     2
 10
685.0577909549737
 20
-271.9704043803847
 40
0.7717997786794905
 50
321.8795802028405
 51
398.1204197971627
 73
     1
 97
        4
330
302
330
301
330
2FC
330
2FB
 75
     1
 76
     2
 52
45.0
 41
0.1
 77
     0
 78
     1
 53
45.0
 43
62.7811309658083
 44
-72.3161373035813
 45
-0.1414213562373095
 46
0.0
 79
     0
 98
        1
 10
0.0
 20
0.0
  0
HATCH
  5
35D
330
81
100
AcDbEntity
  8
1
  6
Continuous
 62
     2
100
AcDbHatch
 10
0.0
 20
0.0
 30
0.0
210
0.0
220
0.0
230
1.0
  2
CUSTOM20
 70
     0
 71
     1
 91
        4
 92
        1
 93
        8
 72
     1
 10
676.2636516832661
 20
-270.8677442338808
 11
676.2636516832661
 21
-276.4322550030811
 72
     2
 10
675.8394070678822
 20
-276.4322550030811
 40
0.424244615383202
 50
0.0
 51
90.0
 73
     0
 72
     1
 10
675.8394070678822
 20
-276.8564996184643
 11
670.3660949771653
 21
-276.8564996184643
 72
     2
 10
670.3660949771653
 20
-276.4322550030811
 40
0.4242446153828041
 50
90.0
 51
180.0
 73
     0
 72
     1
 10
669.9418503617825
 20
-276.4322550030811
 11
669.9418503617825
 21
-270.8677442338808
 72
     2
 10
670.3660949771653
 20
-270.8677442338808
 40
0.4242446153837705
 50
180.0
 51
270.0
 73
     0
 72
     1
 10
670.3660949771653
 20
-270.443499618497
 11
675.8394070678822
 21
-270.443499618497
 72
     2
 10
675.8394070678822
 20
-270.8677442338808
 40
0.4242446153838273
 50
270.0
 51
360.0
 73
     0
 97
        8
330
269
330
2F8
330
26A
330
303
330
267
330
2FA
330
268
330
2F9
 92
       16
 93
       12
 72
     2
 10
670.9599896539119
 20
-275.8282271398307
 40
0.3157169230756836
 50
180.0
 51
270.0
 73
     1
 72
     1
 10
670.9599896539119
 20
-276.1439440629074
 11
672.4358229149213
 21
-276.1439440629074
 72
     2
 10
672.4358229149213
 20
-275.8282271398307
 40
0.3157169230767067
 50
270.0
 51
360.0
 73
     1
 72
     1
 10
672.751539837998
 20
-275.8282271398307
 11
672.751539837998
 21
-274.2974562082991
 72
     2
 10
672.4358229149213
 20
-274.2974562082991
 40
0.3157169230767067
 50
0.0
 51
64.8055893514504
 73
     1
 72
     2
 10
672.9584073624964
 20
-273.1866264622364
 40
0.9118975235576555
 50
115.1944106485135
 51
244.8055893514789
 73
     0
 72
     2
 10
672.4358229149213
 20
-272.0757967161742
 40
0.3157169230761172
 50
295.1944106485628
 51
360.0
 73
     1
 72
     1
 10
672.751539837998
 20
-272.0757967161742
 11
672.751539837998
 21
-271.4717720971136
 72
     2
 10
672.4358229149213
 20
-271.4717720971136
 40
0.3157169230767067
 50
0.0
 51
90.0
 73
     1
 72
     1
 10
672.4358229149213
 20
-271.1560551740375
 11
670.9599896539119
 21
-271.1560551740375
 72
     2
 10
670.9599896539119
 20
-271.4717720971136
 40
0.3157169230761383
 50
90.0
 51
180.0
 73
     1
 72
     1
 10
670.6442727308362
 20
-271.4717720971136
 11
670.6442727308362
 21
-275.8282271398307
 97
       12
330
2F4
330
26B
330
2F7
330
266
330
304
330
305
330
2F6
330
265
330
2F5
330
264
330
306
330
263
 92
       16
 93
        8
 72
     2
 10
673.5355383404436
 20
-274.2957680622047
 40
0.3157169230764936
 50
115.3740086783609
 51
180.0
 73
     1
 72
     1
 10
673.2198214173668
 20
-274.2957680622047
 11
673.2198214173668
 21
-274.8776194688998
 72
     2
 10
673.5355383404436
 20
-274.8776194688998
 40
0.3157169230768204
 50
180.0
 51
269.811032957418
 73
     1
 72
     2
 10
673.5411544757536
 20
-273.1747845213308
 40
2.01856113193321
 50
269.811032957581
 51
450.188967042419
 73
     1
 72
     2
 10
673.5355383404436
 20
-271.4719495737618
 40
0.3157169230761285
 50
90.18896704258201
 51
180.0
 73
     1
 72
     1
 10
673.2198214173668
 20
-271.4719495737618
 11
673.2198214173668
 21
-272.0774848622686
 72
     2
 10
673.5355383404436
 20
-272.0774848622686
 40
0.3157169230768204
 50
180.0
 51
244.6259913216258
 73
     1
 72
     2
 10
673.0094956423557
 20
-273.1866264622364
 40
0.9118481501444062
 50
295.3740086781896
 51
424.625991321818
 73
     0
 97
        8
330
310
330
230
330
30D
330
30E
330
2EC
330
22F
330
30F
330
2EB
 92
       16
 93
        1
 72
     2
 10
672.9856806276829
 20
-273.1866264622364
 40
0.4709789327785074
 50
0.0
 51
360.0
 73
     1
 97
        1
330
31E
 75
     1
 76
     2
 52
45.0
 41
0.1
 77
     0
 78
     1
 53
45.0
 43
62.7811309658083
 44
-72.3161373035813
 45
-0.1414213562373095
 46
0.0
 79
     0
 98
        1
 10
0.0
 20
0.0
  0
HATCH
  5
35E
330
81
100
AcDbEntity
  8
1
  6
Continuous
 62
     2
100
AcDbHatch
 10
0.0
 20
0.0
 30
0.0
210
0.0
220
0.0
230
1.0
  2
CUSTOM21
 70
     0
 71
     1
 91
        4
 92
        1
 93
        8
 72
     1
 10
676.2636516832661
 20
-270.8677442338808
 11
676.2636516832661
 21
-276.4322550030811
 72
     2
 10
675.8394070678822
 20
-276.4322550030811
 40
0.424244615383202
 50
0.0
 51
90.0
 73
     0
 72
     1
 10
675.8394070678822
 20
-276.8564996184643
 11
670.3660949771653
 21
-276.8564996184643
 72
     2
 10
670.3660949771653
 20
-276.4322550030811
 40
0.4242446153828041
 50
90.0
 51
180.0
 73
     0
 72
     1
 10
669.9418503617825
 20
-276.4322550030811
 11
669.9418503617825
 21
-270.8677442338808
 72
     2
 10
670.3660949771653
 20
-270.8677442338808
 40
0.4242446153837705
 50
180.0
 51
270.0
 73
     0
 72
     1
 10
670.3660949771653
 20
-270.443499618497
 11
675.8394070678822
 21
-270.443499618497
 72
     2
 10
675.8394070678822
 20
-270.8677442338808
 40
0.4242446153838273
 50
270.0
 51
360.0
 73
     0
 97
        8
330
269
330
2F8
330
26A
330
303
330
267
330
2FA
330
268
330
2F9
 92
       16
 93
       12
 72
     2
 10
670.9599896539119
 20
-275.8282271398307
 40
0.3157169230756836
 50
180.0
 51
270.0
 73
     1
 72
     1
 10
670.9599896539119
 20
-276.1439440629074
 11
672.4358229149213
 21
-276.1439440629074
 72
     2
 10
672.4358229149213
 20
-275.8282271398307
 40
0.3157169230767067
 50
270.0
 51
360.0
 73
     1
 72
     1
 10
672.751539837998
 20
-275.8282271398307
 11
672.751539837998
 21
-274.2974562082991
 72
     2
 10
672.4358229149213
 20
-274.2974562082991
 40
0.3157169230767067
 50
0.0
 51
64.8055893514504
 73
     1
 72
     2
 10
672.9584073624964
 20
-273.1866264622364
 40
0.9118975235576555
 50
115.1944106485135
 51
244.8055893514789
 73
     0
 72
     2
 10
672.4358229149213
 20
-272.0757967161742
 40
0.3157169230761172
 50
295.1944106485628
 51
360.0
 73
     1
 72
     1
 10
672.751539837998
 20
-272.0757967161742
 11
672.751539837998
 21
-271.4717720971136
 72
     2
 10
672.4358229149213
 20
-271.4717720971136
 40
0.3157169230767067
 50
0.0
 51
90.0
 73
     1
 72
     1
 10
672.4358229149213
 20
-271.1560551740375
 11
670.9599896539119
 21
-271.1560551740375
 72
     2
 10
670.9599896539119
 20
-271.4717720971136
 40
0.3157169230761383
 50
90.0
 51
180.0
 73
     1
 72
     1
 10
670.6442727308362
 20
-271.4717720971136
 11
670.6442727308362
 21
-275.8282271398307
 97
       12
330
2F4
330
26B
330
2F7
330
266
330
304
330
305
330
2F6
330
265
330
2F5
330
264
330
306
330
263
 92
       16
 93
        8
 72
     2
 10
673.5355383404436
 20
-274.2957680622047
 40
0.3157169230764936
 50
115.3740086783609
 51
180.0
 73
     1
 72
     1
 10
673.2198214173668
 20
-274.2957680622047
 11
673.2198214173668
 21
-274.8776194688998
 72
     2
 10
673.5355383404436
 20
-274.8776194688998
 40
0.3157169230768204
 50
180.0
 51
269.811032957418
 73
     1
 72
     2
 10
673.5411544757536
 20
-273.1747845213308
 40
2.01856113193321
 50
269.811032957581
 51
450.188967042419
 73
     1
 72
     2
 10
673.5355383404436
 20
-271.4719495737618
 40
0.3157169230761285
 50
90.18896704258201
 51
180.0
 73
     1
 72
     1
 10
673.2198214173668
 20
-271.4719495737618
 11
673.2198214173668
 21
-272.0774848622686
 72
     2
 10
673.5355383404436
 20
-272.0774848622686
 40
0.3157169230768204
 50
180.0
 51
244.6259913216258
 73
     1
 72
     2
 10
673.0094956423557
 20
-273.1866264622364
 40
0.9118481501444062
 50
295.3740086781896
 51
424.625991321818
 73
     0
 97
        8
330
310
330
230
330
30D
330
30E
330
2EC
330
22F
330
30F
330
2EB
 92
       16
 93
        1
 72
     2
 10
672.9856806276829
 20
-273.1866264622364
 40
0.4709789327785074
 50
0.0
 51
360.0
 73
     1
 97
        1
330
31E
 75
     1
 76
     2
 52
45.0
 41
0.1
 77
     0
 78
     1
 53
45.0
 43
62.7811309658083
 44
-72.3161373035813
 45
-0.1414213562373095
 46
0.0
 79
     0
 98
        1
 10
0.0
 20
0.0
  0
HATCH
  5
35F
330
81
100
AcDbEntity
  8
1
  6
Continuous
 62
     2
100
AcDbHatch
 10
0.0
 20
0.0
 30
0.0
210
0.0
220
0.0
230
1.0
  2
CUSTOM22
 70
     0
 71
     1
 91
        1
 92
        1
 93
       18
 72
     1
 10
697.853199592487
 20
-274.5879554007769
 11
697.0421005550136
 21
-274.5879554007769
 72
     1
 10
697.0421005550136
 20
-274.5879554007769
 11
697.0421005550136
 21
-276.8564996184643
 72
     1
 10
697.0421005550136
 20
-276.8564996184643
 11
695.8493078528459
 21
-276.8564996184643
 72
     1
 10
695.8493078528459
 20
-276.8564996184643
 11
695.8493078528459
 21
-274.5879554007769
 72
     1
 10
695.8493078528459
 20
-274.5879554007769
 11
694.7456685532778
 21
-274.5879554007769
 72
     2
 10
694.7456685532778
 20
-275.542478407603
 40
0.9545230068261503
 50
90.0
 51
109.3371432194254
 73
     1
 72
     2
 10
694.5989985551741
 20
-275.12452342722
 40
0.5115800601944585
 50
109.3371432194802
 51
151.4785267424115
 73
     1
 72
     2
 10
694.9763558132556
 20
-275.3295948565591
 40
0.9410597353351122
 50
151.4785267423559
 51
208.5214732576654
 73
     1
 72
     2
 10
694.5989985551741
 20
-275.5346662858976
 40
0.5115800601960715
 50
208.5214732576836
 51
246.6277221118395
 73
     1
 72
     2
 10
694.7554385878773
 20
-275.1726742671876
 40
0.9059297849852503
 50
246.6277221118135
 51
288.448076118076
 73
     1
 72
     2
 10
694.3372708542153
 20
-273.9191284911508
 40
2.22738400897288
 50
288.4480761181323
 51
301.930908949939
 73
     1
 72
     1
 10
695.5153258962392
 20
-275.8094792103007
 11
695.5153258962392
 21
-276.681996217104
 72
     2
 10
694.1793979791225
 20
-272.0169139113025
 40
4.852596863498941
 50
74.0200087416619
 51
84.84185523036345
 73
     0
 72
     2
 10
694.4682540738584
 20
-275.2168044945242
 40
1.639695123940421
 50
84.84185523032279
 51
164.9381082228985
 73
     0
 72
     2
 10
694.0491262303967
 20
-275.3295948565591
 40
1.205656168392933
 50
164.9381082229073
 51
195.0618917770953
 73
     0
 72
     2
 10
694.4682540738584
 20
-275.4423852185939
 40
1.639695123940101
 50
195.0618917771015
 51
270.0
 73
     0
 72
     1
 10
694.4682540738584
 20
-273.8026900946538
 11
697.853199592487
 21
-273.8026900946531
 72
     1
 10
697.853199592487
 20
-273.8026900946531
 11
697.853199592487
 21
-274.5879554007769
 97
       18
330
232
330
309
330
30A
330
2F2
330
2F1
330
296
330
2F0
330
2EF
330
30B
330
2EE
330
30C
330
2ED
330
297
330
231
330
236
330
235
330
234
330
233
 75
     1
 76
     2
 52
45.0
 41
0.1
 77
     0
 78
     1
 53
45.0
 43
62.7811309658083
 44
-72.3161373035813
 45
-0.1414213562373095
 46
0.0
 79
     0
 98
        1
 10
0.0
 20
0.0
  0
HATCH
  5
360
330
81
100
AcDbEntity
  8
1
  6
Continuous
 62
     2
100
AcDbHatch
 10
0.0
 20
0.0
 30
0.0
210
0.0
220
0.0
230
1.0
  2
CUSTOM23
 70
     0
 71
     1
 91
        1
 92
        1
 93
       18
 72
     1
 10
697.853199592487
 20
-274.5879554007769
 11
697.0421005550136
 21
-274.5879554007769
 72
     1
 10
697.0421005550136
 20
-274.5879554007769
 11
697.0421005550136
 21
-276.8564996184643
 72
     1
 10
697.0421005550136
 20
-276.8564996184643
 11
695.8493078528459
 21
-276.8564996184643
 72
     1
 10
695.8493078528459
 20
-276.8564996184643
 11
695.8493078528459
 21
-274.5879554007769
 72
     1
 10
695.8493078528459
 20
-274.5879554007769
 11
694.7456685532778
 21
-274.5879554007769
 72
     2
 10
694.7456685532778
 20
-275.542478407603
 40
0.9545230068261503
 50
90.0
 51
109.3371432194254
 73
     1
 72
     2
 10
694.5989985551741
 20
-275.12452342722
 40
0.5115800601944585
 50
109.3371432194802
 51
151.4785267424115
 73
     1
 72
     2
 10
694.9763558132556
 20
-275.3295948565591
 40
0.9410597353351122
 50
151.4785267423559
 51
208.5214732576654
 73
     1
 72
     2
 10
694.5989985551741
 20
-275.5346662858976
 40
0.5115800601960715
 50
208.5214732576836
 51
246.6277221118395
 73
     1
 72
     2
 10
694.7554385878773
 20
-275.1726742671876
 40
0.9059297849852503
 50
246.6277221118135
 51
288.448076118076
 73
     1
 72
     2
 10
694.3372708542153
 20
-273.9191284911508
 40
2.22738400897288
 50
288.4480761181323
 51
301.930908949939
 73
     1
 72
     1
 10
695.5153258962392
 20
-275.8094792103007
 11
695.5153258962392
 21
-276.681996217104
 72
     2
 10
694.1793979791225
 20
-272.0169139113025
 40
4.852596863498941
 50
74.0200087416619
 51
84.84185523036345
 73
     0
 72
     2
 10
694.4682540738584
 20
-275.2168044945242
 40
1.639695123940421
 50
84.84185523032279
 51
164.9381082228985
 73
     0
 72
     2
 10
694.0491262303967
 20
-275.3295948565591
 40
1.205656168392933
 50
164.9381082229073
 51
195.0618917770953
 73
     0
 72
     2
 10
694.4682540738584
 20
-275.4423852185939
 40
1.639695123940101
 50
195.0618917771015
 51
270.0
 73
     0
 72
     1
 10
694.4682540738584
 20
-273.8026900946538
 11
697.853199592487
 21
-273.8026900946531
 72
     1
 10
697.853199592487
 20
-273.8026900946531
 11
697.853199592487
 21
-274.5879554007769
 97
       18
330
232
330
309
330
30A
330
2F2
330
2F1
330
296
330
2F0
330
2EF
330
30B
330
2EE
330
30C
330
2ED
330
297
330
231
330
236
330
235
330
234
330
233
 75
     1
 76
     2
 52
45.0
 41
0.1
 77
     0
 78
     1
 53
45.0
 43
62.7811309658083
 44
-72.3161373035813
 45
-0.1414213562373095
 46
0.0
 79
     0
 98
        1
 10
0.0
 20
0.0
  0
HATCH
  5
361
330
81
100
AcDbEntity
  8
1
  6
Continuous
 62
     2
100
AcDbHatch
 10
0.0
 20
0.0
 30
0.0
210
0.0
220
0.0
230
1.0
  2
CUSTOM24
 70
     0
 71
     1
 91
        1
 92
        1
 93
       14
 72
     2
 10
678.3655525946056
 20
-275.4423852185939
 40
1.639695123940496
 50
84.8418552303663
 51
164.9381082228913
 73
     1
 72
     2
 10
677.9464247511427
 20
-275.3295948565591
 40
1.205656168390957
 50
164.9381082228794
 51
195.0618917770945
 73
     1
 72
     2
 10
678.3655525946056
 20
-275.2168044945242
 40
1.639695123939519
 50
195.0618917770914
 51
275.1581447696353
 73
     1
 72
     2
 10
678.0766964998696
 20
-272.0169139113025
 40
4.852596863498329
 50
275.1581447696237
 51
285.9799912583525
 73
     1
 72
     1
 10
679.4126244169875
 20
-276.6819962171035
 11
679.4126244169875
 21
-275.8094792103001
 72
     2
 10
678.2345693749623
 20
-273.9191284911504
 40
2.227384008972701
 50
58.06909105003307
 51
71.55192388186305
 73
     0
 72
     2
 10
678.6527371086233
 20
-275.1726742671876
 40
0.9059297849848895
 50
71.55192388184321
 51
113.3722778881337
 73
     0
 72
     2
 10
678.4962970759212
 20
-275.5346662858976
 40
0.5115800601948012
 50
113.3722778881722
 51
151.4785267423116
 73
     0
 72
     2
 10
678.8736543340016
 20
-275.3295948565591
 40
0.9410597353333044
 50
151.4785267422989
 51
208.5214732577315
 73
     0
 72
     2
 10
678.4962970759212
 20
-275.12452342722
 40
0.5115800601948927
 50
208.5214732576884
 51
246.627722111805
 73
     0
 72
     2
 10
678.6527371086233
 20
-275.4865154459306
 40
0.9059297849853049
 50
246.6277221118678
 51
288.4480761181431
 73
     0
 72
     2
 10
678.2345693749623
 20
-276.7400612219672
 40
2.227384008973525
 50
288.448076118136
 51
301.9309089499654
 73
     0
 72
     1
 10
679.4126244169875
 20
-274.8497105028174
 11
679.4126244169875
 21
-273.9771934960141
 72
     2
 10
678.0766964998696
 20
-278.6422758018149
 40
4.852596863497994
 50
74.02000874164679
 51
84.84185523037603
 73
     1
 97
       14
330
311
330
312
330
313
330
314
330
298
330
2EA
330
2E9
330
2E8
330
315
330
316
330
2E7
330
317
330
299
330
2E6
 75
     1
 76
     2
 52
45.0
 41
0.1
 77
     0
 78
     1
 53
45.0
 43
62.7811309658083
 44
-72.3161373035813
 45
-0.1414213562373095
 46
0.0
 79
     0
 98
        1
 10
0.0
 20
0.0
  0
HATCH
  5
362
330
81
100
AcDbEntity
  8
1
  6
Continuous
 62
     2
100
AcDbHatch
 10
0.0
 20
0.0
 30
0.0
210
0.0
220
0.0
230
1.0
  2
CUSTOM25
 70
     0
 71
     1
 91
        1
 92
        1
 93
       14
 72
     2
 10
678.3655525946056
 20
-275.4423852185939
 40
1.639695123940496
 50
84.8418552303663
 51
164.9381082228913
 73
     1
 72
     2
 10
677.9464247511427
 20
-275.3295948565591
 40
1.205656168390957
 50
164.9381082228794
 51
195.0618917770945
 73
     1
 72
     2
 10
678.3655525946056
 20
-275.2168044945242
 40
1.639695123939519
 50
195.0618917770914
 51
275.1581447696353
 73
     1
 72
     2
 10
678.0766964998696
 20
-272.0169139113025
 40
4.852596863498329
 50
275.1581447696237
 51
285.9799912583525
 73
     1
 72
     1
 10
679.4126244169875
 20
-276.6819962171035
 11
679.4126244169875
 21
-275.8094792103001
 72
     2
 10
678.2345693749623
 20
-273.9191284911504
 40
2.227384008972701
 50
58.06909105003307
 51
71.55192388186305
 73
     0
 72
     2
 10
678.6527371086233
 20
-275.1726742671876
 40
0.9059297849848895
 50
71.55192388184321
 51
113.3722778881337
 73
     0
 72
     2
 10
678.4962970759212
 20
-275.5346662858976
 40
0.5115800601948012
 50
113.3722778881722
 51
151.4785267423116
 73
     0
 72
     2
 10
678.8736543340016
 20
-275.3295948565591
 40
0.9410597353333044
 50
151.4785267422989
 51
208.5214732577315
 73
     0
 72
     2
 10
678.4962970759212
 20
-275.12452342722
 40
0.5115800601948927
 50
208.5214732576884
 51
246.627722111805
 73
     0
 72
     2
 10
678.6527371086233
 20
-275.4865154459306
 40
0.9059297849853049
 50
246.6277221118678
 51
288.4480761181431
 73
     0
 72
     2
 10
678.2345693749623
 20
-276.7400612219672
 40
2.227384008973525
 50
288.448076118136
 51
301.9309089499654
 73
     0
 72
     1
 10
679.4126244169875
 20
-274.8497105028174
 11
679.4126244169875
 21
-273.9771934960141
 72
     2
 10
678.0766964998696
 20
-278.6422758018149
 40
4.852596863497994
 50
74.02000874164679
 51
84.84185523037603
 73
     1
 97
       14
330
311
330
312
330
313
330
314
330
298
330
2EA
330
2E9
330
2E8
330
315
330
316
330
2E7
330
317
330
299
330
2E6
 75
     1
 76
     2
 52
45.0
 41
0.1
 77
     0
 78
     1
 53
45.0
 43
62.7811309658083
 44
-72.3161373035813
 45
-0.1414213562373095
 46
0.0
 79
     0
 98
        1
 10
0.0
 20
0.0
  0
ENDBLK
  5
83
330
81
100
AcDbEntity
  8
0
100
AcDbBlockEnd
  0
BLOCK
  5
85
330
84
100
AcDbEntity
  8
0
100
AcDbBlockBegin
  2
_punkt
 70
     0
 10
795.2500000019699
 20
-284.1499996184806
 30
0.0
  3
_punkt
  1

  0
LINE
  5
363
330
84
100
AcDbEntity
  8
1
  6
Continuous
 62
     2
100
AcDbLine
 10
795.25000000197
 20
-284.1499996184806
 30
0.0
 11
800.2500000019675
 21
-284.1499996184806
 31
0.0
  0
LINE
  5
364
330
84
100
AcDbEntity
  8
1
  6
Continuous
 62
     2
100
AcDbLine
 10
795.25000000197
 20
-284.1499996184806
 30
0.0
 11
795.25000000197
 21
-289.1499996184801
 31
0.0
  0
ENDBLK
  5
86
330
84
100
AcDbEntity
  8
0
100
AcDbBlockEnd
  0
BLOCK
  5
8A
330
87
100
AcDbEntity
  8
0
100
AcDbBlockBegin
  2
A3I_CS
 70
     0
 10
795.25000000197
 20
-289.1499996184801
 30
0.0
  3
A3I_CS
  1

  0
INSERT
  5
88
330
87
100
AcDbEntity
  8
1
100
AcDbBlockReference
  2
_rahmen
 10
795.25000000197
 20
-289.1499996184801
 30
0.0
  0
INSERT
  5
89
330
87
100
AcDbEntity
  8
1
100
AcDbBlockReference
  2
_punkt
 10
795.2500000019699
 20
-284.1499996184806
 30
0.0
  0
ENDBLK
  5
8B
330
87
100
AcDbEntity
  8
0
100
AcDbBlockEnd
  0
BLOCK
  5
94
330
8C
100
AcDbEntity
  8
0
100
AcDbBlockBegin
  2
1__7
 70
     0
 10
0.0
 20
0.0
 30
0.0
  3
1__7
  1

  0
INSERT
  5
8D
330
8C
100
AcDbEntity
  8
0
100
AcDbBlockReference
  2
Back1
 10
728.5000000019704
 20
-61.14999961848025
 30
0.0
  0
INSERT
  5
8E
330
8C
100
AcDbEntity
  8
0
100
AcDbBlockReference
  2
Front1
 10
571.9999999980364
 20
-61.14999961847991
 30
0.0
  0
INSERT
  5
8F
330
8C
100
AcDbEntity
  8
0
100
AcDbBlockReference
  2
Left1
 10
1125.25
 20
-61.15172961847907
 30
0.0
  0
INSERT
  5
90
330
8C
100
AcDbEntity
  8
0
100
AcDbBlockReference
  2
Right1
 10
939.2500000000011
 20
-61.15028361848024
 30
0.0
  0
INSERT
  5
91
330
8C
100
AcDbEntity
  8
0
100
AcDbBlockReference
  2
Top1
 10
572.0021499980351
 20
294.5000000000011
 30
0.0
  0
INSERT
  5
92
330
8C
100
AcDbEntity
  8
0
100
AcDbBlockReference
  2
Paste1
 10
669.1169296338733
 20
-167.2619988927219
 30
0.0
  0
INSERT
  5
93
330
8C
100
AcDbEntity
  8
0
100
AcDbBlockReference
  2
A3I_CS
 10
795.25000000197
 20
-289.1499996184801
 30
0.0
  0
ENDBLK
  5
95
330
8C
100
AcDbEntity
  8
0
100
AcDbBlockEnd
  0
BLOCK
  5
D8
330
D0
100
AcDbEntity
  8
0
100
AcDbBlockBegin
  2
*D21
 70
     1
 10
0.0
 20
0.0
 30
0.0
  3
*D21
  1

  0
LINE
  5
D1
330
D0
100
AcDbEntity
  8
1
  6
Continuous
 62
     2
100
AcDbLine
 10
554.8499999960701
 20
-68.49999923696049
 30
0.0
 11
554.8499999960701
 21
-53.79999923696028
 31
0.0
  0
LINE
  5
D2
330
D0
100
AcDbEntity
  8
1
  6
Continuous
 62
     2
100
AcDbLine
 10
565.3499999960701
 20
-68.49999923696049
 30
0.0
 11
553.3499999960701
 21
-68.49999923696049
 31
0.0
  0
LINE
  5
D3
330
D0
100
AcDbEntity
  8
1
  6
Continuous
 62
     2
100
AcDbLine
 10
563.7499999960712
 20
-53.79999923696028
 30
0.0
 11
553.3499999960701
 21
-53.79999923696028
 31
0.0
  0
SOLID
  5
D4
330
D0
100
AcDbEntity
  8
1
 62
     2
100
AcDbTrace
 10
554.3892162545142
 20
-64.99999923696049
 30
0.0
 11
555.310783737626
 21
-64.99999923696049
 31
0.0
 12
554.8499999960701
 22
-68.49999923696049
 32
0.0
 13
554.8499999960701
 23
-68.49999923696049
 33
0.0
  0
SOLID
  5
D5
330
D0
100
AcDbEntity
  8
1
 62
     2
100
AcDbTrace
 10
555.310783737626
 20
-57.29999923696028
 30
0.0
 11
554.3892162545142
 21
-57.29999923696028
 31
0.0
 12
554.8499999960701
 22
-53.79999923696028
 32
0.0
 13
554.8499999960701
 23
-53.79999923696028
 33
0.0
  0
MTEXT
  5
D7
330
D0
100
AcDbEntity
  8
1
 62
     3
100
AcDbMText
 10
552.9999999960702
 20
-64.38037450901342
 30
0.0
 40
3.5
 41
0.0
 71
     7
 72
     1
  1
14,7
  7
CONVERTER_11
 11
0.0
 21
1.0
 31
0.0
 73
     1
 44
0.60024009603842
  0
ENDBLK
  5
D9
330
D0
100
AcDbEntity
  8
0
100
AcDbBlockEnd
  0
BLOCK
  5
E3
330
DC
100
AcDbEntity
  8
0
100
AcDbBlockBegin
  2
*D22
 70
     1
 10
0.0
 20
0.0
 30
0.0
  3
*D22
  1

  0
LINE
  5
DD
330
DC
100
AcDbEntity
  8
1
  6
Continuous
 62
     2
100
AcDbLine
 10
563.7499999960712
 20
-77.43200390907415
 30
0.0
 11
580.2499999960712
 21
-77.43200390907415
 31
0.0
  0
LINE
  5
DE
330
DC
100
AcDbEntity
  8
1
  6
Continuous
 62
     2
100
AcDbLine
 10
563.7499999960712
 20
-53.79999923696028
 30
0.0
 11
563.7499999960712
 21
-78.93200390907415
 31
0.0
  0
LINE
  5
DF
330
DC
100
AcDbEntity
  8
1
  6
Continuous
 62
     2
100
AcDbLine
 10
580.2499999960712
 20
-66.79999923696028
 30
0.0
 11
580.2499999960712
 21
-78.93200390907415
 31
0.0
  0
SOLID
  5
E0
330
DC
100
AcDbEntity
  8
1
 62
     2
100
AcDbTrace
 10
567.2499999960712
 20
-76.97122016751827
 30
0.0
 11
567.2499999960712
 21
-77.89278765063004
 31
0.0
 12
563.7499999960712
 22
-77.43200390907415
 32
0.0
 13
563.7499999960712
 23
-77.43200390907415
 33
0.0
  0
SOLID
  5
E1
330
DC
100
AcDbEntity
  8
1
 62
     2
100
AcDbTrace
 10
576.7499999960712
 20
-77.89278765063004
 30
0.0
 11
576.7499999960712
 21
-76.97122016751827
 31
0.0
 12
580.2499999960712
 22
-77.43200390907415
 32
0.0
 13
580.2499999960712
 23
-77.43200390907415
 33
0.0
  0
MTEXT
  5
E2
330
DC
100
AcDbEntity
  8
1
 62
     3
100
AcDbMText
 10
567.5925642864571
 20
-75.58200390907416
 30
0.0
 40
3.5
 41
0.0
 71
     7
 72
     1
  1
16,5
  7
CONVERTER_11
 11
0.9999999999970619
 21
2.424068405545306E-6
 31
0.0
 73
     1
 44
0.60024009603842
  0
ENDBLK
  5
E4
330
DC
100
AcDbEntity
  8
0
100
AcDbBlockEnd
  0
BLOCK
  5
17C
330
175
100
AcDbEntity
  8
0
100
AcDbBlockBegin
  2
*D23
 70
     1
 10
0.0
 20
0.0
 30
0.0
  3
*D23
  1

  0
LINE
  5
176
330
175
100
AcDbEntity
  8
1
  6
Continuous
 62
     2
100
AcDbLine
 10
553.7521499960698
 20
-130.9999999999983
 30
0.0
 11
553.7521499960698
 21
-208.9999999999983
 31
0.0
  0
LINE
  5
177
330
175
100
AcDbEntity
  8
1
  6
Continuous
 62
     2
100
AcDbLine
 10
563.7521499960698
 20
-130.9999999999983
 30
0.0
 11
552.2521499960698
 21
-130.9999999999983
 31
0.0
  0
LINE
  5
178
330
175
100
AcDbEntity
  8
1
  6
Continuous
 62
     2
100
AcDbLine
 10
563.7521499960699
 20
-208.9999999999983
 30
0.0
 11
552.2521499960698
 21
-208.9999999999983
 31
0.0
  0
SOLID
  5
179
330
175
100
AcDbEntity
  8
1
 62
     2
100
AcDbTrace
 10
554.2129337376257
 20
-134.4999999999983
 30
0.0
 11
553.2913662545138
 21
-134.4999999999983
 31
0.0
 12
553.7521499960698
 22
-130.9999999999983
 32
0.0
 13
553.7521499960698
 23
-130.9999999999983
 33
0.0
  0
SOLID
  5
17A
330
175
100
AcDbEntity
  8
1
 62
     2
100
AcDbTrace
 10
553.2913662545138
 20
-205.4999999999983
 30
0.0
 11
554.2129337376257
 21
-205.4999999999983
 31
0.0
 12
553.7521499960698
 22
-208.9999999999983
 32
0.0
 13
553.7521499960698
 23
-208.9999999999983
 33
0.0
  0
MTEXT
  5
17B
330
175
100
AcDbEntity
  8
1
 62
     3
100
AcDbMText
 10
552.2521499960698
 20
-174.2882623478544
 30
0.0
 40
3.5
 41
0.0
 71
     7
 72
     1
  1
1007
  7
CONVERTER_11
 11
0.0
 21
1.0
 31
0.0
 73
     1
 44
0.60024009603842
  0
ENDBLK
  5
17D
330
175
100
AcDbEntity
  8
0
100
AcDbBlockEnd
  0
ENDSEC
  0
SECTION
  2
ENTITIES
  0
INSERT
  5
96
330
1F
100
AcDbEntity
  8
1
100
AcDbBlockReference
  2
1__7
 10
0.0
 20
0.0
 30
0.0
  0
ENDSEC
  0
SECTION
  2
OBJECTS
  0
DICTIONARY
  5
C
330
0
100
AcDbDictionary
281
     1
  3
ACAD_GROUP
350
D
  3
ACAD_LAYOUT
350
1A
  3
ACAD_MATERIAL
350
3B
  3
ACAD_MLEADERSTYLE
350
38C
  3
ACAD_MLINESTYLE
350
17
  3
ACAD_PLOTSETTINGS
350
19
  3
ACAD_PLOTSTYLENAME
350
E
  3
ACAD_TABLESTYLE
350
38B
  3
ACAD_VISUALSTYLE
350
2A
  0
DICTIONARY
  5
D
102
{ACAD_REACTORS
330
C
102
}
330
C
100
AcDbDictionary
281
     1
  0
DICTIONARY
  5
1A
102
{ACAD_REACTORS
330
C
102
}
330
C
100
AcDbDictionary
281
     1
  3
Layout1
350
1E
  3
Layout2
350
26
  3
Model
350
22
  0
DICTIONARY
  5
3B
102
{ACAD_REACTORS
330
C
102
}
330
C
100
AcDbDictionary
281
     1
  3
ByBlock
350
3D
  3
ByLayer
350
3C
  3
Global
350
3E
  0
DICTIONARY
  5
38C
102
{ACAD_REACTORS
330
C
102
}
330
C
100
AcDbDictionary
281
     1
  0
DICTIONARY
  5
17
102
{ACAD_REACTORS
330
C
102
}
330
C
100
AcDbDictionary
281
     1
  3
Standard
350
18
  0
DICTIONARY
  5
19
102
{ACAD_REACTORS
330
C
102
}
330
C
100
AcDbDictionary
281
     1
  0
ACDBDICTIONARYWDFLT
  5
E
102
{ACAD_REACTORS
330
C
102
}
330
C
100
AcDbDictionary
281
     1
  3
Normal
350
F
100
AcDbDictionaryWithDefault
340
F
  0
DICTIONARY
  5
38B
102
{ACAD_REACTORS
330
C
102
}
330
C
100
AcDbDictionary
281
     1
  0
DICTIONARY
  5
2A
102
{ACAD_REACTORS
330
C
102
}
330
C
100
AcDbDictionary
281
     1
  3
2dWireframe
350
2F
  3
3D Hidden
350
31
  3
3dWireframe
350
30
  3
Basic
350
32
  3
Brighten
350
36
  3
ColorChange
350
3A
  3
Conceptual
350
34
  3
Dim
350
35
  3
Facepattern
350
39
  3
Flat
350
2B
  3
FlatWithEdges
350
2C
  3
Gouraud
350
2D
  3
GouraudWithEdges
350
2E
  3
Linepattern
350
38
  3
Realistic
350
33
  3
Thicken
350
37
  0
LAYOUT
  5
1E
102
{ACAD_REACTORS
330
1A
102
}
330
1A
100
AcDbPlotSettings
  1

  2
none_device
  4

  6

 40
0.0
 41
0.0
 42
0.0
 43
0.0
 44
0.0
 45
0.0
 46
0.0
 47
0.0
 48
0.0
 49
0.0
140
0.0
141
0.0
142
1.0
143
1.0
 70
   688
 72
     0
 73
     0
 74
     5
  7

 75
    16
 76
     0
 77
     2
 78
   300
147
1.0
148
0.0
149
0.0
100
AcDbLayout
  1
Layout1
 70
     1
 71
     1
 10
0.0
 20
0.0
 11
12.0
 21
9.0
 12
0.0
 22
0.0
 32
0.0
 14
1.00000000000000E+20
 24
1.00000000000000E+20
 34
1.00000000000000E+20
 15
-1.00000000000000E+20
 25
-1.00000000000000E+20
 35
-1.00000000000000E+20
146
0.0
 13
0.0
 23
0.0
 33
0.0
 16
1.0
 26
0.0
 36
0.0
 17
0.0
 27
1.0
 37
0.0
 76
     0
330
1B
  0
LAYOUT
  5
26
102
{ACAD_REACTORS
330
1A
102
}
330
1A
100
AcDbPlotSettings
  1

  2
none_device
  4

  6

 40
0.0
 41
0.0
 42
0.0
 43
0.0
 44
0.0
 45
0.0
 46
0.0
 47
0.0
 48
0.0
 49
0.0
140
0.0
141
0.0
142
1.0
143
1.0
 70
   688
 72
     0
 73
     0
 74
     5
  7

 75
    16
 76
     0
 77
     2
 78
   300
147
1.0
148
0.0
149
0.0
100
AcDbLayout
  1
Layout2
 70
     1
 71
     2
 10
0.0
 20
0.0
 11
0.0
 21
0.0
 12
0.0
 22
0.0
 32
0.0
 14
0.0
 24
0.0
 34
0.0
 15
0.0
 25
0.0
 35
0.0
146
0.0
 13
0.0
 23
0.0
 33
0.0
 16
1.0
 26
0.0
 36
0.0
 17
0.0
 27
1.0
 37
0.0
 76
     0
330
23
  0
LAYOUT
  5
22
102
{ACAD_REACTORS
330
1A
102
}
330
1A
100
AcDbPlotSettings
  1

  2
none_device
  4

  6

 40
0.0
 41
0.0
 42
0.0
 43
0.0
 44
0.0
 45
0.0
 46
0.0
 47
0.0
 48
0.0
 49
0.0
140
0.0
141
0.0
142
1.0
143
1.0
 70
  1712
 72
     0
 73
     0
 74
     0
  7

 75
     0
 76
     0
 77
     2
 78
   300
147
1.0
148
0.0
149
0.0
100
AcDbLayout
  1
Model
 70
     1
 71
     0
 10
0.0
 20
0.0
 11
12.0
 21
9.0
 12
0.0
 22
0.0
 32
0.0
 14
380.2500000019691
 24
-289.1499996184801
 34
0.0
 15
800.2500000019675
 25
7.85000038151991
 35
0.0
146
0.0
 13
0.0
 23
0.0
 33
0.0
 16
1.0
 26
0.0
 36
0.0
 17
0.0
 27
1.0
 37
0.0
 76
     0
330
1F
331
29
  0
MATERIAL
  5
3D
102
{ACAD_REACTORS
330
3B
102
}
102
{ACAD_XDICTIONARY
360
387
102
}
330
3B
100
AcDbMaterial
  1
ByBlock
  0
MATERIAL
  5
3C
102
{ACAD_REACTORS
330
3B
102
}
102
{ACAD_XDICTIONARY
360
385
102
}
330
3B
100
AcDbMaterial
  1
ByLayer
  0
MATERIAL
  5
3E
102
{ACAD_REACTORS
330
3B
102
}
102
{ACAD_XDICTIONARY
360
389
102
}
330
3B
100
AcDbMaterial
  1
Global
  0
MLINESTYLE
  5
18
102
{ACAD_REACTORS
330
17
102
}
330
17
100
AcDbMlineStyle
  2
Standard
 70
     0
  3

 62
   256
 51
90.0
 52
90.0
 71
     2
 49
0.5
 62
   256
  6
BYLAYER
 49
-0.5
 62
   256
  6
BYLAYER
  0
ACDBPLACEHOLDER
  5
F
102
{ACAD_REACTORS
330
E
102
}
330
E
  0
VISUALSTYLE
  5
2F
102
{ACAD_REACTORS
330
2A
102
}
102
{ACAD_XDICTIONARY
360
36D
102
}
330
2A
100
AcDbVisualStyle
  2
2dWireframe
 70
     4
 71
     0
 72
     2
 73
     0
 90
        0
 40
-0.6
 41
-30.0
 62
     5
 63
     7
421
 16777215
 74
     1
 91
        4
 64
     7
 65
   257
 75
     1
175
     1
 42
1.0
 92
        0
 66
   257
 43
1.0
 76
     1
 77
     6
 78
     2
 67
     7
 79
     5
170
     0
171
     0
290
     0
174
     0
 93
        1
 44
0.0
173
     0
291
     0
 45
0.0
1001
ACAD
1000
AcDbSavedByObjectVersion
1070
     0
  0
VISUALSTYLE
  5
31
102
{ACAD_REACTORS
330
2A
102
}
102
{ACAD_XDICTIONARY
360
371
102
}
330
2A
100
AcDbVisualStyle
  2
3D Hidden
 70
     6
 71
     1
 72
     2
 73
     2
 90
        0
 40
-0.6
 41
-30.0
 62
     5
 63
     7
421
 16777215
 74
     2
 91
        2
 64
     7
 65
   257
 75
     2
175
     1
 42
40.0
 92
        0
 66
   257
 43
1.0
 76
     1
 77
     6
 78
     2
 67
     7
 79
     3
170
     0
171
     0
290
     0
174
     0
 93
        1
 44
0.0
173
     0
291
     0
 45
0.0
1001
ACAD
1000
AcDbSavedByObjectVersion
1070
     0
  0
VISUALSTYLE
  5
30
102
{ACAD_REACTORS
330
2A
102
}
102
{ACAD_XDICTIONARY
360
36F
102
}
330
2A
100
AcDbVisualStyle
  2
3dWireframe
 70
     5
 71
     0
 72
     2
 73
     0
 90
        0
 40
-0.6
 41
-30.0
 62
     5
 63
     7
421
 16777215
 74
     1
 91
        4
 64
     7
 65
   257
 75
     1
175
     1
 42
1.0
 92
        0
 66
   257
 43
1.0
 76
     1
 77
     6
 78
     2
 67
     7
 79
     5
170
     0
171
     0
290
     0
174
     0
 93
        1
 44
0.0
173
     0
291
     0
 45
0.0
1001
ACAD
1000
AcDbSavedByObjectVersion
1070
     0
  0
VISUALSTYLE
  5
32
102
{ACAD_REACTORS
330
2A
102
}
102
{ACAD_XDICTIONARY
360
373
102
}
330
2A
100
AcDbVisualStyle
  2
Basic
 70
     7
 71
     1
 72
     0
 73
     1
 90
        0
 40
-0.6
 41
-30.0
 62
     5
 63
     7
421
 16777215
 74
     0
 91
        4
 64
     7
 65
   257
 75
     1
175
     1
 42
1.0
 92
        8
 66
     7
 43
1.0
 76
     1
 77
     6
 78
     2
 67
     7
 79
     5
170
     0
171
     0
290
     0
174
     0
 93
        1
 44
0.0
173
     0
291
     1
 45
0.0
1001
ACAD
1000
AcDbSavedByObjectVersion
1070
     0
  0
VISUALSTYLE
  5
36
102
{ACAD_REACTORS
330
2A
102
}
102
{ACAD_XDICTIONARY
360
37B
102
}
330
2A
100
AcDbVisualStyle
  2
Brighten
 70
    12
 71
     2
 72
     2
 73
     0
 90
        0
 40
-0.6
 41
-30.0
 62
     5
 63
     7
421
 16777215
 74
     1
 91
        4
 64
     7
 65
   257
 75
     1
175
     1
 42
1.0
 92
        8
 66
     7
 43
1.0
 76
     1
 77
     6
 78
     2
 67
     7
 79
     5
170
     0
171
     0
290
     0
174
     0
 93
        1
 44
50.0
173
     0
291
     1
 45
0.0
1001
ACAD
1000
AcDbSavedByObjectVersion
1070
     0
  0
VISUALSTYLE
  5
3A
102
{ACAD_REACTORS
330
2A
102
}
102
{ACAD_XDICTIONARY
360
383
102
}
330
2A
100
AcDbVisualStyle
  2
ColorChange
 70
    16
 71
     2
 72
     2
 73
     3
 90
        0
 40
-0.6
 41
-30.0
 62
     5
 63
     8
421
  8421504
 74
     1
 91
        4
 64
     7
 65
   257
 75
     1
175
     1
 42
1.0
 92
        8
 66
     8
424
  8421504
 43
1.0
 76
     1
 77
     6
 78
     2
 67
     7
 79
     5
170
     0
171
     0
290
     0
174
     0
 93
        1
 44
0.0
173
     0
291
     1
 45
0.0
1001
ACAD
1000
AcDbSavedByObjectVersion
1070
     0
  0
VISUALSTYLE
  5
34
102
{ACAD_REACTORS
330
2A
102
}
102
{ACAD_XDICTIONARY
360
377
102
}
330
2A
100
AcDbVisualStyle
  2
Conceptual
 70
     9
 71
     3
 72
     2
 73
     0
 90
        0
 40
-0.6
 41
-30.0
 62
     5
 63
     7
421
 16777215
 74
     2
 91
        2
 64
     7
 65
   257
 75
     1
175
     1
 42
40.0
 92
        8
 66
     7
 43
1.0
 76
     1
 77
     6
 78
     2
 67
     7
 79
     3
170
     0
171
     0
290
     0
174
     0
 93
        1
 44
0.0
173
     0
291
     0
 45
0.0
1001
ACAD
1000
AcDbSavedByObjectVersion
1070
     0
  0
VISUALSTYLE
  5
35
102
{ACAD_REACTORS
330
2A
102
}
102
{ACAD_XDICTIONARY
360
379
102
}
330
2A
100
AcDbVisualStyle
  2
Dim
 70
    11
 71
     2
 72
     2
 73
     0
 90
        0
 40
-0.6
 41
-30.0
 62
     5
 63
     7
421
 16777215
 74
     1
 91
        4
 64
     7
 65
   257
 75
     1
175
     1
 42
1.0
 92
        8
 66
     7
 43
1.0
 76
     1
 77
     6
 78
     2
 67
     7
 79
     5
170
     0
171
     0
290
     0
174
     0
 93
        1
 44
-50.0
173
     0
291
     1
 45
0.0
1001
ACAD
1000
AcDbSavedByObjectVersion
1070
     0
  0
VISUALSTYLE
  5
39
102
{ACAD_REACTORS
330
2A
102
}
102
{ACAD_XDICTIONARY
360
381
102
}
330
2A
100
AcDbVisualStyle
  2
Facepattern
 70
    15
 71
     2
 72
     2
 73
     0
 90
        0
 40
-0.6
 41
-30.0
 62
     5
 63
     7
421
 16777215
 74
     1
 91
        4
 64
     7
 65
   257
 75
     1
175
     1
 42
1.0
 92
        8
 66
     7
 43
1.0
 76
     1
 77
     6
 78
     2
 67
     7
 79
     5
170
     0
171
     0
290
     0
174
     0
 93
        1
 44
0.0
173
     0
291
     1
 45
0.0
1001
ACAD
1000
AcDbSavedByObjectVersion
1070
     0
  0
VISUALSTYLE
  5
2B
102
{ACAD_REACTORS
330
2A
102
}
102
{ACAD_XDICTIONARY
360
365
102
}
330
2A
100
AcDbVisualStyle
  2
Flat
 70
     0
 71
     2
 72
     1
 73
     1
 90
        2
 40
-0.6
 41
30.0
 62
     5
 63
     7
421
 16777215
 74
     0
 91
        4
 64
     7
 65
   257
 75
     1
175
     1
 42
1.0
 92
        8
 66
     7
 43
1.0
 76
     1
 77
     6
 78
     2
 67
     7
 79
     5
170
     0
171
     0
290
     0
174
     0
 93
       13
 44
0.0
173
     0
291
     1
 45
0.0
1001
ACAD
1000
AcDbSavedByObjectVersion
1070
     0
  0
VISUALSTYLE
  5
2C
102
{ACAD_REACTORS
330
2A
102
}
102
{ACAD_XDICTIONARY
360
367
102
}
330
2A
100
AcDbVisualStyle
  2
FlatWithEdges
 70
     1
 71
     2
 72
     1
 73
     1
 90
        2
 40
-0.6
 41
30.0
 62
     5
 63
     7
421
 16777215
 74
     1
 91
        4
 64
     7
 65
   257
 75
     1
175
     1
 42
1.0
 92
        0
 66
   257
 43
1.0
 76
     1
 77
     6
 78
     2
 67
     7
 79
     5
170
     0
171
     0
290
     0
174
     0
 93
       13
 44
0.0
173
     0
291
     1
 45
0.0
1001
ACAD
1000
AcDbSavedByObjectVersion
1070
     0
  0
VISUALSTYLE
  5
2D
102
{ACAD_REACTORS
330
2A
102
}
102
{ACAD_XDICTIONARY
360
369
102
}
330
2A
100
AcDbVisualStyle
  2
Gouraud
 70
     2
 71
     2
 72
     2
 73
     1
 90
        2
 40
-0.6
 41
30.0
 62
     5
 63
     7
421
 16777215
 74
     0
 91
        4
 64
     7
 65
   257
 75
     1
175
     1
 42
1.0
 92
        0
 66
     7
 43
1.0
 76
     1
 77
     6
 78
     2
 67
     7
 79
     5
170
     0
171
     0
290
     0
174
     0
 93
       13
 44
0.0
173
     0
291
     1
 45
0.0
1001
ACAD
1000
AcDbSavedByObjectVersion
1070
     0
  0
VISUALSTYLE
  5
2E
102
{ACAD_REACTORS
330
2A
102
}
102
{ACAD_XDICTIONARY
360
36B
102
}
330
2A
100
AcDbVisualStyle
  2
GouraudWithEdges
 70
     3
 71
     2
 72
     2
 73
     1
 90
        2
 40
-0.6
 41
30.0
 62
     5
 63
     7
421
 16777215
 74
     1
 91
        4
 64
     7
 65
   257
 75
     1
175
     1
 42
1.0
 92
        0
 66
   257
 43
1.0
 76
     1
 77
     6
 78
     2
 67
     7
 79
     5
170
     0
171
     0
290
     0
174
     0
 93
       13
 44
0.0
173
     0
291
     1
 45
0.0
1001
ACAD
1000
AcDbSavedByObjectVersion
1070
     0
  0
VISUALSTYLE
  5
38
102
{ACAD_REACTORS
330
2A
102
}
102
{ACAD_XDICTIONARY
360
37F
102
}
330
2A
100
AcDbVisualStyle
  2
Linepattern
 70
    14
 71
     2
 72
     2
 73
     0
 90
        0
 40
-0.6
 41
-30.0
 62
     5
 63
     7
421
 16777215
 74
     1
 91
        4
 64
     7
 65
   257
 75
     7
175
     7
 42
1.0
 92
        8
 66
     7
 43
1.0
 76
     1
 77
     6
 78
     2
 67
     7
 79
     5
170
     0
171
     0
290
     0
174
     0
 93
        1
 44
0.0
173
     0
291
     1
 45
0.0
1001
ACAD
1000
AcDbSavedByObjectVersion
1070
     0
  0
VISUALSTYLE
  5
33
102
{ACAD_REACTORS
330
2A
102
}
102
{ACAD_XDICTIONARY
360
375
102
}
330
2A
100
AcDbVisualStyle
  2
Realistic
 70
     8
 71
     2
 72
     2
 73
     0
 90
        0
 40
-0.6
 41
-30.0
 62
     5
 63
     7
421
 16777215
 74
     1
 91
        0
 64
     7
 65
   257
 75
     1
175
     1
 42
1.0
 92
        8
 66
     8
424
  7895160
 43
1.0
 76
     1
 77
     6
 78
     2
 67
     7
 79
     5
170
     0
171
     0
290
     0
174
     0
 93
       13
 44
0.0
173
     0
291
     0
 45
0.0
1001
ACAD
1000
AcDbSavedByObjectVersion
1070
     0
  0
VISUALSTYLE
  5
37
102
{ACAD_REACTORS
330
2A
102
}
102
{ACAD_XDICTIONARY
360
37D
102
}
330
2A
100
AcDbVisualStyle
  2
Thicken
 70
    13
 71
     2
 72
     2
 73
     0
 90
        0
 40
-0.6
 41
-30.0
 62
     5
 63
     7
421
 16777215
 74
     1
 91
        4
 64
     7
 65
   257
 75
     1
175
     1
 42
1.0
 92
       12
 66
     7
 43
1.0
 76
     1
 77
     6
 78
     2
 67
     7
 79
     5
170
     0
171
     0
290
     0
174
     0
 93
        1
 44
0.0
173
     0
291
     1
 45
0.0
1001
ACAD
1000
AcDbSavedByObjectVersion
1070
     0
  0
DICTIONARY
  5
387
330
3D
100
AcDbDictionary
280
     1
281
     1
  3
ACAD_XREC_ROUNDTRIP
360
388
  0
DICTIONARY
  5
385
330
3C
100
AcDbDictionary
280
     1
281
     1
  3
ACAD_XREC_ROUNDTRIP
360
386
  0
DICTIONARY
  5
389
330
3E
100
AcDbDictionary
280
     1
281
     1
  3
ACAD_XREC_ROUNDTRIP
360
38A
  0
DICTIONARY
  5
36D
330
2F
100
AcDbDictionary
280
     1
281
     1
  3
ACAD_XREC_ROUNDTRIP
360
36E
  0
DICTIONARY
  5
371
330
31
100
AcDbDictionary
280
     1
281
     1
  3
ACAD_XREC_ROUNDTRIP
360
372
  0
DICTIONARY
  5
36F
330
30
100
AcDbDictionary
280
     1
281
     1
  3
ACAD_XREC_ROUNDTRIP
360
370
  0
DICTIONARY
  5
373
330
32
100
AcDbDictionary
280
     1
281
     1
  3
ACAD_XREC_ROUNDTRIP
360
374
  0
DICTIONARY
  5
37B
330
36
100
AcDbDictionary
280
     1
281
     1
  3
ACAD_XREC_ROUNDTRIP
360
37C
  0
DICTIONARY
  5
383
330
3A
100
AcDbDictionary
280
     1
281
     1
  3
ACAD_XREC_ROUNDTRIP
360
384
  0
DICTIONARY
  5
377
330
34
100
AcDbDictionary
280
     1
281
     1
  3
ACAD_XREC_ROUNDTRIP
360
378
  0
DICTIONARY
  5
379
330
35
100
AcDbDictionary
280
     1
281
     1
  3
ACAD_XREC_ROUNDTRIP
360
37A
  0
DICTIONARY
  5
381
330
39
100
AcDbDictionary
280
     1
281
     1
  3
ACAD_XREC_ROUNDTRIP
360
382
  0
DICTIONARY
  5
365
330
2B
100
AcDbDictionary
280
     1
281
     1
  3
ACAD_XREC_ROUNDTRIP
360
366
  0
DICTIONARY
  5
367
330
2C
100
AcDbDictionary
280
     1
281
     1
  3
ACAD_XREC_ROUNDTRIP
360
368
  0
DICTIONARY
  5
369
330
2D
100
AcDbDictionary
280
     1
281
     1
  3
ACAD_XREC_ROUNDTRIP
360
36A
  0
DICTIONARY
  5
36B
330
2E
100
AcDbDictionary
280
     1
281
     1
  3
ACAD_XREC_ROUNDTRIP
360
36C
  0
DICTIONARY
  5
37F
330
38
100
AcDbDictionary
280
     1
281
     1
  3
ACAD_XREC_ROUNDTRIP
360
380
  0
DICTIONARY
  5
375
330
33
100
AcDbDictionary
280
     1
281
     1
  3
ACAD_XREC_ROUNDTRIP
360
376
  0
DICTIONARY
  5
37D
330
37
100
AcDbDictionary
280
     1
281
     1
  3
ACAD_XREC_ROUNDTRIP
360
37E
  0
XRECORD
  5
388
102
{ACAD_REACTORS
330
387
102
}
330
387
100
AcDbXrecord
280
     1
102
MATERIAL
148
0.0
149
0.0
149
0.0
 93
        0
 94
      127
282
     0
 72
     1
 77
     1
171
     1
175
     1
179
     1
273
     0
  0
XRECORD
  5
386
102
{ACAD_REACTORS
330
385
102
}
330
385
100
AcDbXrecord
280
     1
102
MATERIAL
148
0.0
149
0.0
149
0.0
 93
        0
 94
      127
282
     0
 72
     1
 77
     1
171
     1
175
     1
179
     1
273
     0
  0
XRECORD
  5
38A
102
{ACAD_REACTORS
330
389
102
}
330
389
100
AcDbXrecord
280
     1
102
MATERIAL
148
0.0
149
0.0
149
0.0
 93
        0
 94
      127
282
     0
 72
     1
 77
     1
171
     1
175
     1
179
     1
273
     0
  0
XRECORD
  5
36E
102
{ACAD_REACTORS
330
36D
102
}
330
36D
100
AcDbXrecord
280
     1
102
RTVSPropertyOp0
 70
     1
102
RTVSPropertyOp1
 70
     1
102
RTVSPropertyOp2
 70
     1
102
RTVSPropertyOp3
 70
     1
102
RTVSPropertyOp4
 70
     1
102
RTVSPropertyOp5
 70
     1
102
RTVSPropertyOp6
 70
     1
102
RTVSPropertyOp7
 70
     1
102
RTVSPropertyOp8
 70
     1
102
RTVSPropertyOp9
 70
     1
102
RTVSPropertyOp10
 70
     1
102
RTVSPropertyOp11
 70
     1
102
RTVSPropertyOp12
 70
     1
102
RTVSPropertyOp13
 70
     1
102
RTVSPropertyOp14
 70
     1
102
RTVSPropertyOp15
 70
     1
102
RTVSPropertyOp16
 70
     1
102
RTVSPropertyOp17
 70
     1
102
RTVSPropertyOp18
 70
     1
102
RTVSPropertyOp19
 70
     1
102
RTVSPropertyOp20
 70
     1
102
RTVSPropertyOp21
 70
     1
102
RTVSPropertyOp22
 70
     1
102
RTVSPropertyOp23
 70
     1
102
RTVSPropertyOp24
 70
     1
102
RTVSPropertyOp25
 70
     1
102
RTVSPropertyOp26
 70
     1
102
RTVSPropertyOp27
 70
     1
102
RTVSPropertyOp28
 70
     1
102
RTVSPropertyOp29
 70
     1
102
RTVSPropertyOp30
 70
     1
102
RTVSPropertyOp31
 70
     1
102
RTVSPropertyOp32
 70
     1
  0
XRECORD
  5
372
102
{ACAD_REACTORS
330
371
102
}
330
371
100
AcDbXrecord
280
     1
102
RTVSPropertyOp0
 70
     1
102
RTVSPropertyOp1
 70
     1
102
RTVSPropertyOp2
 70
     1
102
RTVSPropertyOp3
 70
     1
102
RTVSPropertyOp4
 70
     1
102
RTVSPropertyOp5
 70
     1
102
RTVSPropertyOp6
 70
     1
102
RTVSPropertyOp7
 70
     1
102
RTVSPropertyOp8
 70
     1
102
RTVSPropertyOp9
 70
     1
102
RTVSPropertyOp10
 70
     1
102
RTVSPropertyOp11
 70
     1
102
RTVSPropertyOp12
 70
     1
102
RTVSPropertyOp13
 70
     1
102
RTVSPropertyOp14
 70
     1
102
RTVSPropertyOp15
 70
     1
102
RTVSPropertyOp16
 70
     1
102
RTVSPropertyOp17
 70
     1
102
RTVSPropertyOp18
 70
     1
102
RTVSPropertyOp19
 70
     1
102
RTVSPropertyOp20
 70
     1
102
RTVSPropertyOp21
 70
     1
102
RTVSPropertyOp22
 70
     1
102
RTVSPropertyOp23
 70
     1
102
RTVSPropertyOp24
 70
     1
102
RTVSPropertyOp25
 70
     1
102
RTVSPropertyOp26
 70
     1
102
RTVSPropertyOp27
 70
     1
102
RTVSPropertyOp28
 70
     1
102
RTVSPropertyOp29
 70
     1
102
RTVSPropertyOp30
 70
     1
102
RTVSPropertyOp31
 70
     1
102
RTVSPropertyOp32
 70
     1
  0
XRECORD
  5
370
102
{ACAD_REACTORS
330
36F
102
}
330
36F
100
AcDbXrecord
280
     1
102
RTVSPropertyOp0
 70
     1
102
RTVSPropertyOp1
 70
     1
102
RTVSPropertyOp2
 70
     1
102
RTVSPropertyOp3
 70
     1
102
RTVSPropertyOp4
 70
     1
102
RTVSPropertyOp5
 70
     1
102
RTVSPropertyOp6
 70
     1
102
RTVSPropertyOp7
 70
     1
102
RTVSPropertyOp8
 70
     1
102
RTVSPropertyOp9
 70
     1
102
RTVSPropertyOp10
 70
     1
102
RTVSPropertyOp11
 70
     1
102
RTVSPropertyOp12
 70
     1
102
RTVSPropertyOp13
 70
     1
102
RTVSPropertyOp14
 70
     1
102
RTVSPropertyOp15
 70
     1
102
RTVSPropertyOp16
 70
     1
102
RTVSPropertyOp17
 70
     1
102
RTVSPropertyOp18
 70
     1
102
RTVSPropertyOp19
 70
     1
102
RTVSPropertyOp20
 70
     1
102
RTVSPropertyOp21
 70
     1
102
RTVSPropertyOp22
 70
     1
102
RTVSPropertyOp23
 70
     1
102
RTVSPropertyOp24
 70
     1
102
RTVSPropertyOp25
 70
     1
102
RTVSPropertyOp26
 70
     1
102
RTVSPropertyOp27
 70
     1
102
RTVSPropertyOp28
 70
     1
102
RTVSPropertyOp29
 70
     1
102
RTVSPropertyOp30
 70
     1
102
RTVSPropertyOp31
 70
     1
102
RTVSPropertyOp32
 70
     1
  0
XRECORD
  5
374
102
{ACAD_REACTORS
330
373
102
}
330
373
100
AcDbXrecord
280
     1
102
RTVSPropertyOp0
 70
     1
102
RTVSPropertyOp1
 70
     1
102
RTVSPropertyOp2
 70
     1
102
RTVSPropertyOp3
 70
     1
102
RTVSPropertyOp4
 70
     1
102
RTVSPropertyOp5
 70
     1
102
RTVSPropertyOp6
 70
     1
102
RTVSPropertyOp7
 70
     1
102
RTVSPropertyOp8
 70
     1
102
RTVSPropertyOp9
 70
     1
102
RTVSPropertyOp10
 70
     1
102
RTVSPropertyOp11
 70
     1
102
RTVSPropertyOp12
 70
     1
102
RTVSPropertyOp13
 70
     1
102
RTVSPropertyOp14
 70
     1
102
RTVSPropertyOp15
 70
     1
102
RTVSPropertyOp16
 70
     1
102
RTVSPropertyOp17
 70
     1
102
RTVSPropertyOp18
 70
     1
102
RTVSPropertyOp19
 70
     1
102
RTVSPropertyOp20
 70
     1
102
RTVSPropertyOp21
 70
     1
102
RTVSPropertyOp22
 70
     1
102
RTVSPropertyOp23
 70
     1
102
RTVSPropertyOp24
 70
     1
102
RTVSPropertyOp25
 70
     1
102
RTVSPropertyOp26
 70
     1
102
RTVSPropertyOp27
 70
     1
102
RTVSPropertyOp28
 70
     1
102
RTVSPropertyOp29
 70
     1
102
RTVSPropertyOp30
 70
     1
102
RTVSPropertyOp31
 70
     1
102
RTVSPropertyOp32
 70
     1
  0
XRECORD
  5
37C
102
{ACAD_REACTORS
330
37B
102
}
330
37B
100
AcDbXrecord
280
     1
102
RTVSPropertyOp0
 70
     1
102
RTVSPropertyOp1
 70
     1
102
RTVSPropertyOp2
 70
     1
102
RTVSPropertyOp3
 70
     1
102
RTVSPropertyOp4
 70
     1
102
RTVSPropertyOp5
 70
     1
102
RTVSPropertyOp6
 70
     1
102
RTVSPropertyOp7
 70
     1
102
RTVSPropertyOp8
 70
     1
102
RTVSPropertyOp9
 70
     1
102
RTVSPropertyOp10
 70
     1
102
RTVSPropertyOp11
 70
     1
102
RTVSPropertyOp12
 70
     1
102
RTVSPropertyOp13
 70
     1
102
RTVSPropertyOp14
 70
     1
102
RTVSPropertyOp15
 70
     1
102
RTVSPropertyOp16
 70
     1
102
RTVSPropertyOp17
 70
     1
102
RTVSPropertyOp18
 70
     1
102
RTVSPropertyOp19
 70
     1
102
RTVSPropertyOp20
 70
     1
102
RTVSPropertyOp21
 70
     1
102
RTVSPropertyOp22
 70
     1
102
RTVSPropertyOp23
 70
     1
102
RTVSPropertyOp24
 70
     1
102
RTVSPropertyOp25
 70
     1
102
RTVSPropertyOp26
 70
     1
102
RTVSPropertyOp27
 70
     1
102
RTVSPropertyOp28
 70
     1
102
RTVSPropertyOp29
 70
     1
102
RTVSPropertyOp30
 70
     1
102
RTVSPropertyOp31
 70
     1
102
RTVSPropertyOp32
 70
     1
  0
XRECORD
  5
384
102
{ACAD_REACTORS
330
383
102
}
330
383
100
AcDbXrecord
280
     1
102
RTVSPropertyOp0
 70
     1
102
RTVSPropertyOp1
 70
     1
102
RTVSPropertyOp2
 70
     1
102
RTVSPropertyOp3
 70
     1
102
RTVSPropertyOp4
 70
     1
102
RTVSPropertyOp5
 70
     1
102
RTVSPropertyOp6
 70
     1
102
RTVSPropertyOp7
 70
     1
102
RTVSPropertyOp8
 70
     1
102
RTVSPropertyOp9
 70
     1
102
RTVSPropertyOp10
 70
     1
102
RTVSPropertyOp11
 70
     1
102
RTVSPropertyOp12
 70
     1
102
RTVSPropertyOp13
 70
     1
102
RTVSPropertyOp14
 70
     1
102
RTVSPropertyOp15
 70
     1
102
RTVSPropertyOp16
 70
     1
102
RTVSPropertyOp17
 70
     1
102
RTVSPropertyOp18
 70
     1
102
RTVSPropertyOp19
 70
     1
102
RTVSPropertyOp20
 70
     1
102
RTVSPropertyOp21
 70
     1
102
RTVSPropertyOp22
 70
     1
102
RTVSPropertyOp23
 70
     1
102
RTVSPropertyOp24
 70
     1
102
RTVSPropertyOp25
 70
     1
102
RTVSPropertyOp26
 70
     1
102
RTVSPropertyOp27
 70
     1
102
RTVSPropertyOp28
 70
     1
102
RTVSPropertyOp29
 70
     1
102
RTVSPropertyOp30
 70
     1
102
RTVSPropertyOp31
 70
     1
102
RTVSPropertyOp32
 70
     1
  0
XRECORD
  5
378
102
{ACAD_REACTORS
330
377
102
}
330
377
100
AcDbXrecord
280
     1
102
RTVSPropertyOp0
 70
     1
102
RTVSPropertyOp1
 70
     1
102
RTVSPropertyOp2
 70
     1
102
RTVSPropertyOp3
 70
     1
102
RTVSPropertyOp4
 70
     1
102
RTVSPropertyOp5
 70
     1
102
RTVSPropertyOp6
 70
     1
102
RTVSPropertyOp7
 70
     1
102
RTVSPropertyOp8
 70
     1
102
RTVSPropertyOp9
 70
     1
102
RTVSPropertyOp10
 70
     1
102
RTVSPropertyOp11
 70
     1
102
RTVSPropertyOp12
 70
     1
102
RTVSPropertyOp13
 70
     1
102
RTVSPropertyOp14
 70
     1
102
RTVSPropertyOp15
 70
     1
102
RTVSPropertyOp16
 70
     1
102
RTVSPropertyOp17
 70
     1
102
RTVSPropertyOp18
 70
     1
102
RTVSPropertyOp19
 70
     1
102
RTVSPropertyOp20
 70
     1
102
RTVSPropertyOp21
 70
     1
102
RTVSPropertyOp22
 70
     1
102
RTVSPropertyOp23
 70
     1
102
RTVSPropertyOp24
 70
     1
102
RTVSPropertyOp25
 70
     1
102
RTVSPropertyOp26
 70
     1
102
RTVSPropertyOp27
 70
     1
102
RTVSPropertyOp28
 70
     1
102
RTVSPropertyOp29
 70
     1
102
RTVSPropertyOp30
 70
     1
102
RTVSPropertyOp31
 70
     1
102
RTVSPropertyOp32
 70
     1
  0
XRECORD
  5
37A
102
{ACAD_REACTORS
330
379
102
}
330
379
100
AcDbXrecord
280
     1
102
RTVSPropertyOp0
 70
     1
102
RTVSPropertyOp1
 70
     1
102
RTVSPropertyOp2
 70
     1
102
RTVSPropertyOp3
 70
     1
102
RTVSPropertyOp4
 70
     1
102
RTVSPropertyOp5
 70
     1
102
RTVSPropertyOp6
 70
     1
102
RTVSPropertyOp7
 70
     1
102
RTVSPropertyOp8
 70
     1
102
RTVSPropertyOp9
 70
     1
102
RTVSPropertyOp10
 70
     1
102
RTVSPropertyOp11
 70
     1
102
RTVSPropertyOp12
 70
     1
102
RTVSPropertyOp13
 70
     1
102
RTVSPropertyOp14
 70
     1
102
RTVSPropertyOp15
 70
     1
102
RTVSPropertyOp16
 70
     1
102
RTVSPropertyOp17
 70
     1
102
RTVSPropertyOp18
 70
     1
102
RTVSPropertyOp19
 70
     1
102
RTVSPropertyOp20
 70
     1
102
RTVSPropertyOp21
 70
     1
102
RTVSPropertyOp22
 70
     1
102
RTVSPropertyOp23
 70
     1
102
RTVSPropertyOp24
 70
     1
102
RTVSPropertyOp25
 70
     1
102
RTVSPropertyOp26
 70
     1
102
RTVSPropertyOp27
 70
     1
102
RTVSPropertyOp28
 70
     1
102
RTVSPropertyOp29
 70
     1
102
RTVSPropertyOp30
 70
     1
102
RTVSPropertyOp31
 70
     1
102
RTVSPropertyOp32
 70
     1
  0
XRECORD
  5
382
102
{ACAD_REACTORS
330
381
102
}
330
381
100
AcDbXrecord
280
     1
102
RTVSPropertyOp0
 70
     1
102
RTVSPropertyOp1
 70
     1
102
RTVSPropertyOp2
 70
     1
102
RTVSPropertyOp3
 70
     1
102
RTVSPropertyOp4
 70
     1
102
RTVSPropertyOp5
 70
     1
102
RTVSPropertyOp6
 70
     1
102
RTVSPropertyOp7
 70
     1
102
RTVSPropertyOp8
 70
     1
102
RTVSPropertyOp9
 70
     1
102
RTVSPropertyOp10
 70
     1
102
RTVSPropertyOp11
 70
     1
102
RTVSPropertyOp12
 70
     1
102
RTVSPropertyOp13
 70
     1
102
RTVSPropertyOp14
 70
     1
102
RTVSPropertyOp15
 70
     1
102
RTVSPropertyOp16
 70
     1
102
RTVSPropertyOp17
 70
     1
102
RTVSPropertyOp18
 70
     1
102
RTVSPropertyOp19
 70
     1
102
RTVSPropertyOp20
 70
     1
102
RTVSPropertyOp21
 70
     1
102
RTVSPropertyOp22
 70
     1
102
RTVSPropertyOp23
 70
     1
102
RTVSPropertyOp24
 70
     1
102
RTVSPropertyOp25
 70
     1
102
RTVSPropertyOp26
 70
     1
102
RTVSPropertyOp27
 70
     1
102
RTVSPropertyOp28
 70
     1
102
RTVSPropertyOp29
 70
     1
102
RTVSPropertyOp30
 70
     1
102
RTVSPropertyOp31
 70
     1
102
RTVSPropertyOp32
 70
     1
  0
XRECORD
  5
366
102
{ACAD_REACTORS
330
365
102
}
330
365
100
AcDbXrecord
280
     1
102
RTVSPropertyOp0
 70
     1
102
RTVSPropertyOp1
 70
     1
102
RTVSPropertyOp2
 70
     1
102
RTVSPropertyOp3
 70
     1
102
RTVSPropertyOp4
 70
     1
102
RTVSPropertyOp5
 70
     1
102
RTVSPropertyOp6
 70
     1
102
RTVSPropertyOp7
 70
     1
102
RTVSPropertyOp8
 70
     1
102
RTVSPropertyOp9
 70
     1
102
RTVSPropertyOp10
 70
     1
102
RTVSPropertyOp11
 70
     1
102
RTVSPropertyOp12
 70
     1
102
RTVSPropertyOp13
 70
     1
102
RTVSPropertyOp14
 70
     1
102
RTVSPropertyOp15
 70
     1
102
RTVSPropertyOp16
 70
     1
102
RTVSPropertyOp17
 70
     1
102
RTVSPropertyOp18
 70
     1
102
RTVSPropertyOp19
 70
     1
102
RTVSPropertyOp20
 70
     1
102
RTVSPropertyOp21
 70
     1
102
RTVSPropertyOp22
 70
     1
102
RTVSPropertyOp23
 70
     1
102
RTVSPropertyOp24
 70
     1
102
RTVSPropertyOp25
 70
     1
102
RTVSPropertyOp26
 70
     1
102
RTVSPropertyOp27
 70
     1
102
RTVSPropertyOp28
 70
     1
102
RTVSPropertyOp29
 70
     1
102
RTVSPropertyOp30
 70
     1
102
RTVSPropertyOp31
 70
     1
102
RTVSPropertyOp32
 70
     1
  0
XRECORD
  5
368
102
{ACAD_REACTORS
330
367
102
}
330
367
100
AcDbXrecord
280
     1
102
RTVSPropertyOp0
 70
     1
102
RTVSPropertyOp1
 70
     1
102
RTVSPropertyOp2
 70
     1
102
RTVSPropertyOp3
 70
     1
102
RTVSPropertyOp4
 70
     1
102
RTVSPropertyOp5
 70
     1
102
RTVSPropertyOp6
 70
     1
102
RTVSPropertyOp7
 70
     1
102
RTVSPropertyOp8
 70
     1
102
RTVSPropertyOp9
 70
     1
102
RTVSPropertyOp10
 70
     1
102
RTVSPropertyOp11
 70
     1
102
RTVSPropertyOp12
 70
     1
102
RTVSPropertyOp13
 70
     1
102
RTVSPropertyOp14
 70
     1
102
RTVSPropertyOp15
 70
     1
102
RTVSPropertyOp16
 70
     1
102
RTVSPropertyOp17
 70
     1
102
RTVSPropertyOp18
 70
     1
102
RTVSPropertyOp19
 70
     1
102
RTVSPropertyOp20
 70
     1
102
RTVSPropertyOp21
 70
     1
102
RTVSPropertyOp22
 70
     1
102
RTVSPropertyOp23
 70
     1
102
RTVSPropertyOp24
 70
     1
102
RTVSPropertyOp25
 70
     1
102
RTVSPropertyOp26
 70
     1
102
RTVSPropertyOp27
 70
     1
102
RTVSPropertyOp28
 70
     1
102
RTVSPropertyOp29
 70
     1
102
RTVSPropertyOp30
 70
     1
102
RTVSPropertyOp31
 70
     1
102
RTVSPropertyOp32
 70
     1
  0
XRECORD
  5
36A
102
{ACAD_REACTORS
330
369
102
}
330
369
100
AcDbXrecord
280
     1
102
RTVSPropertyOp0
 70
     1
102
RTVSPropertyOp1
 70
     1
102
RTVSPropertyOp2
 70
     1
102
RTVSPropertyOp3
 70
     1
102
RTVSPropertyOp4
 70
     1
102
RTVSPropertyOp5
 70
     1
102
RTVSPropertyOp6
 70
     1
102
RTVSPropertyOp7
 70
     1
102
RTVSPropertyOp8
 70
     1
102
RTVSPropertyOp9
 70
     1
102
RTVSPropertyOp10
 70
     1
102
RTVSPropertyOp11
 70
     1
102
RTVSPropertyOp12
 70
     1
102
RTVSPropertyOp13
 70
     1
102
RTVSPropertyOp14
 70
     1
102
RTVSPropertyOp15
 70
     1
102
RTVSPropertyOp16
 70
     1
102
RTVSPropertyOp17
 70
     1
102
RTVSPropertyOp18
 70
     1
102
RTVSPropertyOp19
 70
     1
102
RTVSPropertyOp20
 70
     1
102
RTVSPropertyOp21
 70
     1
102
RTVSPropertyOp22
 70
     1
102
RTVSPropertyOp23
 70
     1
102
RTVSPropertyOp24
 70
     1
102
RTVSPropertyOp25
 70
     1
102
RTVSPropertyOp26
 70
     1
102
RTVSPropertyOp27
 70
     1
102
RTVSPropertyOp28
 70
     1
102
RTVSPropertyOp29
 70
     1
102
RTVSPropertyOp30
 70
     1
102
RTVSPropertyOp31
 70
     1
102
RTVSPropertyOp32
 70
     1
  0
XRECORD
  5
36C
102
{ACAD_REACTORS
330
36B
102
}
330
36B
100
AcDbXrecord
280
     1
102
RTVSPropertyOp0
 70
     1
102
RTVSPropertyOp1
 70
     1
102
RTVSPropertyOp2
 70
     1
102
RTVSPropertyOp3
 70
     1
102
RTVSPropertyOp4
 70
     1
102
RTVSPropertyOp5
 70
     1
102
RTVSPropertyOp6
 70
     1
102
RTVSPropertyOp7
 70
     1
102
RTVSPropertyOp8
 70
     1
102
RTVSPropertyOp9
 70
     1
102
RTVSPropertyOp10
 70
     1
102
RTVSPropertyOp11
 70
     1
102
RTVSPropertyOp12
 70
     1
102
RTVSPropertyOp13
 70
     1
102
RTVSPropertyOp14
 70
     1
102
RTVSPropertyOp15
 70
     1
102
RTVSPropertyOp16
 70
     1
102
RTVSPropertyOp17
 70
     1
102
RTVSPropertyOp18
 70
     1
102
RTVSPropertyOp19
 70
     1
102
RTVSPropertyOp20
 70
     1
102
RTVSPropertyOp21
 70
     1
102
RTVSPropertyOp22
 70
     1
102
RTVSPropertyOp23
 70
     1
102
RTVSPropertyOp24
 70
     1
102
RTVSPropertyOp25
 70
     1
102
RTVSPropertyOp26
 70
     1
102
RTVSPropertyOp27
 70
     1
102
RTVSPropertyOp28
 70
     1
102
RTVSPropertyOp29
 70
     1
102
RTVSPropertyOp30
 70
     1
102
RTVSPropertyOp31
 70
     1
102
RTVSPropertyOp32
 70
     1
  0
XRECORD
  5
380
102
{ACAD_REACTORS
330
37F
102
}
330
37F
100
AcDbXrecord
280
     1
102
RTVSPropertyOp0
 70
     1
102
RTVSPropertyOp1
 70
     1
102
RTVSPropertyOp2
 70
     1
102
RTVSPropertyOp3
 70
     1
102
RTVSPropertyOp4
 70
     1
102
RTVSPropertyOp5
 70
     1
102
RTVSPropertyOp6
 70
     1
102
RTVSPropertyOp7
 70
     1
102
RTVSPropertyOp8
 70
     1
102
RTVSPropertyOp9
 70
     1
102
RTVSPropertyOp10
 70
     1
102
RTVSPropertyOp11
 70
     1
102
RTVSPropertyOp12
 70
     1
102
RTVSPropertyOp13
 70
     1
102
RTVSPropertyOp14
 70
     1
102
RTVSPropertyOp15
 70
     1
102
RTVSPropertyOp16
 70
     1
102
RTVSPropertyOp17
 70
     1
102
RTVSPropertyOp18
 70
     1
102
RTVSPropertyOp19
 70
     1
102
RTVSPropertyOp20
 70
     1
102
RTVSPropertyOp21
 70
     1
102
RTVSPropertyOp22
 70
     1
102
RTVSPropertyOp23
 70
     1
102
RTVSPropertyOp24
 70
     1
102
RTVSPropertyOp25
 70
     1
102
RTVSPropertyOp26
 70
     1
102
RTVSPropertyOp27
 70
     1
102
RTVSPropertyOp28
 70
     1
102
RTVSPropertyOp29
 70
     1
102
RTVSPropertyOp30
 70
     1
102
RTVSPropertyOp31
 70
     1
102
RTVSPropertyOp32
 70
     1
  0
XRECORD
  5
376
102
{ACAD_REACTORS
330
375
102
}
330
375
100
AcDbXrecord
280
     1
102
RTVSPropertyOp0
 70
     1
102
RTVSPropertyOp1
 70
     1
102
RTVSPropertyOp2
 70
     1
102
RTVSPropertyOp3
 70
     1
102
RTVSPropertyOp4
 70
     1
102
RTVSPropertyOp5
 70
     1
102
RTVSPropertyOp6
 70
     1
102
RTVSPropertyOp7
 70
     1
102
RTVSPropertyOp8
 70
     1
102
RTVSPropertyOp9
 70
     1
102
RTVSPropertyOp10
 70
     1
102
RTVSPropertyOp11
 70
     1
102
RTVSPropertyOp12
 70
     1
102
RTVSPropertyOp13
 70
     1
102
RTVSPropertyOp14
 70
     1
102
RTVSPropertyOp15
 70
     1
102
RTVSPropertyOp16
 70
     1
102
RTVSPropertyOp17
 70
     1
102
RTVSPropertyOp18
 70
     1
102
RTVSPropertyOp19
 70
     1
102
RTVSPropertyOp20
 70
     1
102
RTVSPropertyOp21
 70
     1
102
RTVSPropertyOp22
 70
     1
102
RTVSPropertyOp23
 70
     1
102
RTVSPropertyOp24
 70
     1
102
RTVSPropertyOp25
 70
     1
102
RTVSPropertyOp26
 70
     1
102
RTVSPropertyOp27
 70
     1
102
RTVSPropertyOp28
 70
     1
102
RTVSPropertyOp29
 70
     1
102
RTVSPropertyOp30
 70
     1
102
RTVSPropertyOp31
 70
     1
102
RTVSPropertyOp32
 70
     1
  0
XRECORD
  5
37E
102
{ACAD_REACTORS
330
37D
102
}
330
37D
100
AcDbXrecord
280
     1
102
RTVSPropertyOp0
 70
     1
102
RTVSPropertyOp1
 70
     1
102
RTVSPropertyOp2
 70
     1
102
RTVSPropertyOp3
 70
     1
102
RTVSPropertyOp4
 70
     1
102
RTVSPropertyOp5
 70
     1
102
RTVSPropertyOp6
 70
     1
102
RTVSPropertyOp7
 70
     1
102
RTVSPropertyOp8
 70
     1
102
RTVSPropertyOp9
 70
     1
102
RTVSPropertyOp10
 70
     1
102
RTVSPropertyOp11
 70
     1
102
RTVSPropertyOp12
 70
     1
102
RTVSPropertyOp13
 70
     1
102
RTVSPropertyOp14
 70
     1
102
RTVSPropertyOp15
 70
     1
102
RTVSPropertyOp16
 70
     1
102
RTVSPropertyOp17
 70
     1
102
RTVSPropertyOp18
 70
     1
102
RTVSPropertyOp19
 70
     1
102
RTVSPropertyOp20
 70
     1
102
RTVSPropertyOp21
 70
     1
102
RTVSPropertyOp22
 70
     1
102
RTVSPropertyOp23
 70
     1
102
RTVSPropertyOp24
 70
     1
102
RTVSPropertyOp25
 70
     1
102
RTVSPropertyOp26
 70
     1
102
RTVSPropertyOp27
 70
     1
102
RTVSPropertyOp28
 70
     1
102
RTVSPropertyOp29
 70
     1
102
RTVSPropertyOp30
 70
     1
102
RTVSPropertyOp31
 70
     1
102
RTVSPropertyOp32
 70
     1
  0
ENDSEC
  0
EOF
